aoloffline
版主

[2016] [欧美] [惊悚] [WEB-720P] [BT下载]荒野逃生 Sugar.Mountain.2016.720p.WEB.H264-STRiFE 2.46GB

-->


◎译  名 荒野逃生

◎片  名 Sugar Mountain

◎年  代 2016

◎产  地 美国

◎类  别 剧情/惊悚

◎语  言 英语

◎上映日期 2016-12-09(美国)

◎IMDb评分  5.4/10 from 1,662 users

◎IMDb链接  http://www.imdb.com/title/tt3553378/

◎豆瓣评分 5.5/10 from 566 users

◎豆瓣链接 https://movie.douban.com/subject/26792830/

◎BT之家整理 http://www.btbtt.me/

◎片  长 106分钟

◎导  演 理查德·格雷 Richard Gray

◎主  演 杰森·莫玛 Jason Momoa

      加利·艾尔维斯 Cary Elwes

      安娜·哈彻森 Anna Hutchison

      梅罗拉·沃特斯 Melora Walters

      德鲁·罗伊 Drew Roy

      约翰·卡尔纳 John Karna

      沙恩·科费 Shane Coffey

      海雷·韦伯 Haley Webb

      斯蒂夫·莫察基斯 Steve Mouzakis

      克劳福德·威尔森 Crawford Wilson

      尤利亚·克拉斯 Yulia Klass

      尼克·法内尔 Nick Farnell

      罗恩·霍姆斯特姆 Ron Holmstrom


◎简  介


  影片讲述负债累累的两兄弟为躲避讨债人,逃到阿拉斯加的某处荒野后发生的冒险故事。《荒野逃生》大量戏份发生在阿拉斯加荒野中,拍摄难度非常高。


Video
ID                                       : 1
Format                                   : AVC
Format/Info                              : Advanced Video Codec
Format profile                           : High@L3.1
Format settings                          : CABAC / 5 Ref Frames
Format settings, CABAC                   : Yes
Format settings, RefFrames               : 5 frames
Codec ID                                 : V_MPEG4/ISO/AVC
Duration                                 : 1 h 46 min
Bit rate mode                            : Variable
Bit rate                                 : 2 665 kb/s
Maximum bit rate                         : 4 500 kb/s
Width                                    : 1 280 pixels
Height                                   : 720 pixels
Display aspect ratio                     : 16:9
Frame rate mode                          : Constant
Frame rate                               : 23.976 (24000/1001) FPS
Color space                              : YUV
Chroma subsampling                       : 4:2:0
Bit depth                                : 8 bits
Scan type                                : Progressive
Bits/(Pixel*Frame)                       : 0.121
Stream size                              : 1.98 GiB (81%)
Language                                 : English
Default                                  : Yes
Forced                                   : No
Color range                              : Limited
Color primaries                          : BT.709
Transfer characteristics                 : BT.709
Matrix coefficients                      : BT.709

Audio
ID                                       : 2
Format                                   : E-AC-3
Format/Info                              : Enhanced Audio Coding 3
Format settings, Endianness              : Big
Codec ID                                 : A_EAC3
Duration                                 : 1 h 46 min
Bit rate mode                            : Constant
Bit rate                                 : 640 kb/s
Channel(s)                               : 6 channels
Channel positions                        : Front: L C R, Side: L R, LFE
Sampling rate                            : 48.0 kHz
Frame rate                               : 187.500 FPS (256 SPF)
Compression mode                         : Lossy
Delay relative to video                  : 3 ms
Stream size                              : 487 MiB (19%)
Language                                 : English
Service kind                             : Complete Main
Default                                  : Yes
Forced                                   : No

Text
ID                                       : 3
Format                                   : UTF-8
Codec ID                                 : S_TEXT/UTF8
Codec ID/Info                            : UTF-8 Plain Text
Duration                                 : 1 h 42 min
Bit rate                                 : 49 b/s
Count of elements                        : 1596
Stream size                              : 37.4 KiB (0%)
Language                                 : English
Default                                  : No
Forced                                   : No



1 个附件 售价 大小 下载 时间

Sugar.Mountain.2016.720p.WEB.H264-STRiFE[btbtt.me].torrent 0 金币 98.91K 490 次 4天前

#1楼
发帖时间:2017-11-15 13:40:27   |   回复数:4
911degrees
一代宗师
非常感谢,谢谢分享
4天前 #2楼
yangbo83222179
一代宗师
谢谢楼主分享,支持一下
4天前 #3楼
blue23
隐世仙人♂
感谢楼主分享
3天前 #4楼
liyouchai
超凡入圣№
谢谢楼主分享资源
3天前 #5楼
游客组