aoloffline
版主

[2014] [欧美] [剧情] [WEB-720P] [BT下载]喧哗与骚动 The.Sound.and.the.Fury.2014.720p.WEB.H264-STRiFE 2.48GB

-->



◎译  名 喧哗与骚动

◎片  名 The Sound and the Fury

◎年  代 2014

◎产  地 美国

◎类  别 剧情

◎语  言 英语

◎上映日期 2014-09-05(威尼斯电影节)

◎IMDb评分  4.8/10 from 573 users

◎IMDb链接  http://www.imdb.com/title/tt3026144/

◎豆瓣评分 7.5/10 from 36 users

◎豆瓣链接 https://movie.douban.com/subject/25714334/

◎BT之家整理 http://www.btbtt.me/

◎片  长 101分钟

◎导  演 詹姆斯·弗兰科 James Franco

◎主  演 詹姆斯·弗兰科 James Franco

      戴夫·弗兰科 Dave Franco

      塞斯·罗根 Seth Rogen

      乔伊·金 Joey King

      乔恩·哈姆 Jon Hamm


◎简  介


  改编自美国著名作家福克纳的经典作品,讲述南方没落地主康普生一家的家族悲剧。老康普生游手好闲、嗜酒贪杯。其妻自私冷酷、怨天尤人。长子昆丁绝望地抱住南方所谓的旧传统不放,因妹妹凯蒂风流成性、有辱南方淑女身份而爱恨交加,竟至溺水自杀。次子杰生冷酷贪婪,三子班吉则是个白痴,三十三岁时只有三岁小儿的智能。


Video
ID                                       : 1
Format                                   : AVC
Format/Info                              : Advanced Video Codec
Format profile                           : High@L3.1
Format settings                          : CABAC / 5 Ref Frames
Format settings, CABAC                   : Yes
Format settings, RefFrames               : 5 frames
Codec ID                                 : V_MPEG4/ISO/AVC
Duration                                 : 1 h 42 min
Bit rate mode                            : Variable
Bit rate                                 : 2 832 kb/s
Maximum bit rate                         : 4 500 kb/s
Width                                    : 1 280 pixels
Height                                   : 720 pixels
Display aspect ratio                     : 16:9
Frame rate mode                          : Constant
Frame rate                               : 23.976 (24000/1001) FPS
Color space                              : YUV
Chroma subsampling                       : 4:2:0
Bit depth                                : 8 bits
Scan type                                : Progressive
Bits/(Pixel*Frame)                       : 0.128
Stream size                              : 2.02 GiB (82%)
Language                                 : English
Default                                  : Yes
Forced                                   : No
Color range                              : Limited
Color primaries                          : BT.709
Transfer characteristics                 : BT.709
Matrix coefficients                      : BT.709

Audio
ID                                       : 2
Format                                   : E-AC-3
Format/Info                              : Enhanced Audio Coding 3
Format settings, Endianness              : Big
Codec ID                                 : A_EAC3
Duration                                 : 1 h 42 min
Bit rate mode                            : Constant
Bit rate                                 : 640 kb/s
Channel(s)                               : 6 channels
Channel positions                        : Front: L C R, Side: L R, LFE
Sampling rate                            : 48.0 kHz
Frame rate                               : 187.500 FPS (256 SPF)
Compression mode                         : Lossy
Delay relative to video                  : 27 ms
Stream size                              : 467 MiB (18%)
Language                                 : English
Service kind                             : Complete Main
Default                                  : Yes
Forced                                   : No

Text
ID                                       : 3
Format                                   : UTF-8
Codec ID                                 : S_TEXT/UTF8
Codec ID/Info                            : UTF-8 Plain Text
Duration                                 : 1 h 35 min
Bit rate                                 : 50 b/s
Count of elements                        : 1168
Stream size                              : 35.5 KiB (0%)
Language                                 : English
Default                                  : No
Forced                                   : No



1 个附件 售价 大小 下载 时间

The.Sound.and.the.Fury.2014.720p.WEB.H264-STRiFE[btbtt.me].torrent 0 金币 99.67K 532 次 4天前

#1楼
发帖时间:2017-11-15 13:46:06   |   回复数:5
911degrees
一代宗师
非常感谢,谢谢分享
4天前 #2楼
yangbo83222179
一代宗师
谢谢楼主分享,支持一下
4天前 #3楼
tanchoohoon
一派掌门
感谢楼主的无私分享
3天前 #4楼
blue23
隐世仙人♂
感谢楼主分享
3天前 #5楼
liyouchai
超凡入圣№
谢谢楼主分享资源
3天前 #6楼
游客组