aoloffline
版主

[更 早] [欧美] [战争] [BD-2160P] [BT下载]桂河大桥/桂河桥 1957.2160p.BluRay.x265.10bit.HDR.DTS-SWTYBLZ 48GB

-->

自带中字

The.Bridge.on.the.River.Kwai.1957.2160p.BluRay.x265.10bit.HDR.DTS-HD.MA.TrueHD.7.1.Atmos-SWTYBLZ

◎译  名 桂河大桥/桂河桥

◎片  名 The Bridge on the River Kwai

◎年  代 1957

◎产  地 英国/美国

◎类  别 剧情/历史/战争

◎语  言 英语/日语/泰语

◎上映日期 1957-10-02

◎IMDb评分  8.2/10 from 166,171 users

◎IMDb链接  http://www.imdb.com/title/tt0050212/

◎豆瓣评分 8.3/10 from 12,936 users

◎豆瓣链接 https://movie.douban.com/subject/1294958/

◎BT之家整理 http://www.btbtt.me/

◎片  长 161 分钟

◎导  演 大卫·里恩 David Lean

◎主  演 威廉·霍尔登 William Holden

      亚历克·吉尼斯 Alec Guinness

      杰克·霍金斯 Jack Hawkins

      早川雪洲

      詹姆斯·唐纳德 James Donald

      杰弗里·霍尔内 Geoffrey Horne


◎简  介


  二战期间,日军占领了缅甸边境的一个战俘营。出于战略需要,日军将在缅甸与泰国交界修建一条大桥,同时希望战俘营里战俘出力,但英军战俘代表尼科森上校(亚利克·基尼斯 Alec Guinness 饰)认为这违反日内瓦公约拒不执行。于是尼科森等人被关了禁闭,但是没了尼科森的带领, 战俘们表现消极,而且因日本设计方面的不足,建桥工作陷入了停滞。日军无奈只好放出了尼科森等人,获释后尼科森感到在破坏一切的战争里何不做点建设,于是开始投入到建桥的工作。与此同时,逃出去的美军俘虏希尔兹(威廉•霍尔登 William Holden 饰)接受盟军一个特别任务,就是大桥建成之日将它炸毁。


◎获奖情况


  第30届奥斯卡金像奖  (1958)

  最佳影片 萨姆·斯皮格尔

  最佳导演 大卫·里恩

  最佳男主角 亚历克·吉尼斯

  最佳男配角(提名) 早川雪洲

  最佳改编剧本 卡尔·福尔曼 / 皮埃尔·布尔 / 迈克尔·威尔逊

  最佳剪辑 彼得·泰勒

  最佳摄影 Jack Hildyard

  最佳配乐 马尔科姆·阿诺德



Video
ID                                       : 1
Format                                   : HEVC
Format/Info                              : High Efficiency Video Coding
Format profile                           : Main 10@L5.1@High
Codec ID                                 : V_MPEGH/ISO/HEVC
Duration                                 : 2 h 41 min
Bit rate                                 : 33.1 Mb/s
Width                                    : 3 840 pixels
Height                                   : 1 506 pixels
Display aspect ratio                     : 2.550
Frame rate mode                          : Constant
Frame rate                               : 23.976 (24000/1001) FPS
Color space                              : YUV
Chroma subsampling                       : 4:2:0 (Type 2)
Bit depth                                : 10 bits
Bits/(Pixel*Frame)                       : 0.238
Stream size                              : 37.3 GiB (78%)
Title                                    : The.Bridge.on.the.River.Kwai.1957.2160p.BluRay.x265.10bit.HDR.DTS-HD.MA.TrueHD.7.1.Atmos-SWTYBLZ
Writing library                          : x265 2.5b4a5bcfe29c7:[Windows][GCC 4.9.3][64 bit] 10bit
Encoding settings                        : cpuid=1173503 / frame-threads=16 / numa-pools=24,24,24,24 / wpp / no-pmode / no-pme / no-psnr / no-ssim / log-level=2 / input-csp=1 / input-res=3840x1506 / interlace=0 / total-frames=0 / level-idc=51 / high-tier=1 / uhd-bd=0 / ref=3 / no-allow-non-conformance / repeat-headers / annexb / aud / hrd / info / hash=0 / no-temporal-layers / no-open-gop / min-keyint=1 / keyint=24 / bframes=4 / b-adapt=2 / b-pyramid / bframe-bias=0 / rc-lookahead=25 / lookahead-slices=4 / scenecut=40 / no-intra-refresh / ctu=64 / min-cu-size=8 / no-rect / no-amp / max-tu-size=32 / tu-inter-depth=1 / tu-intra-depth=1 / limit-tu=0 / rdoq-level=0 / dynamic-rd=0.00 / no-ssim-rd / signhide / no-tskip / nr-intra=0 / nr-inter=0 / no-constrained-intra / strong-intra-smoothing / max-merge=2 / limit-refs=3 / no-limit-modes / me=1 / subme=2 / merange=57 / temporal-mvp / weightp / no-weightb / no-analyze-src-pics / deblock=0:0 / no-sao / no-sao-non-deblock / rd=3 / no-early-skip / rskip / no-fast-intra / no-tskip-fast / no-cu-lossless / no-b-intra / rdpenalty=0 / psy-rd=2.00 / psy-rdoq=0.00 / no-rd-refine / analysis-reuse-mode=0 / no-lossless / cbqpoffs=0 / crqpoffs=0 / rc=crf / crf=18.0 / qcomp=0.60 / qpstep=4 / stats-write=0 / stats-read=0 / vbv-maxrate=160000 / vbv-bufsize=160000 / vbv-init=0.9 / crf-max=0.0 / crf-min=0.0 / ipratio=1.40 / pbratio=1.30 / aq-mode=1 / aq-strength=1.00 / cutree / zone-count=0 / no-strict-cbr / qg-size=32 / no-rc-grain / qpmax=69 / qpmin=0 / no-const-vbv / sar=1 / overscan=0 / videoformat=5 / range=0 / colorprim=9 / transfer=16 / colormatrix=9 / chromaloc=1 / chromaloc-top=2 / chromaloc-bottom=2 / display-window=0 / master-display=G(13250,34500)B(7500,3000)R(34000,16000)WP(15635,16450)L(40000000,50) / max-cll=10000,272 / min-luma=0 / max-luma=1023 / log2-max-poc-lsb=8 / vui-timing-info / vui-hrd-info / slices=1 / opt-qp-pps / opt-ref-list-length-pps / no-multi-pass-opt-rps / scenecut-bias=0.05 / no-opt-cu-delta-qp / no-aq-motion / hdr / hdr-opt / no-dhdr10-opt / analysis-reuse-level=5 / scale-factor=0 / refine-intra=0 / refine-inter=0 / refine-mv=0 / no-limit-sao / ctu-info=0
Language                                 : English
Default                                  : Yes
Forced                                   : No
Color range                              : Limited
Color primaries                          : BT.2020
Transfer characteristics                 : PQ
Matrix coefficients                      : BT.2020 non-constant
Mastering display color primaries        : R: x=0.680000 y=0.320000, G: x=0.265000 y=0.690000, B: x=0.150000 y=0.060000, White point: x=0.312700 y=0.329000
Mastering display luminance              : min: 0.0050 cd/m2, max: 4000.0000 cd/m2
Maximum Content Light Level              : 10000 cd/m2
Maximum Frame-Average Light Level        : 272 cd/m2

Audio #1
ID                                       : 2
Format                                   : TrueHD
Format profile                           : TrueHD+Atmos / TrueHD
Codec ID                                 : A_TRUEHD
Duration                                 : 2 h 41 min
Bit rate mode                            : Variable
Bit rate                                 : 4 718 kb/s
Maximum bit rate                         : 7 050 kb/s
Channel(s)                               : Object Based / 8 channels
Channel positions                        : Object Based / Front: L C R, Side: L R, Back: L R, LFE
Sampling rate                            :  / 48.0 kHz
Frame rate                               : 1 200.000 FPS (40 SPF)
Compression mode                         : Lossless
Stream size                              : 5.32 GiB (11%)
Title                                    : The.Bridge.on.the.River.Kwai.1957.2160p.BluRay.x265.10bit.HDR.DTS-HD.MA.TrueHD.7.1.Atmos-SWTYBLZ
Language                                 : English
Default                                  : Yes
Forced                                   : No

Audio #2
ID                                       : 3
Format                                   : DTS
Format/Info                              : Digital Theater Systems
Format profile                           : MA / Core
Codec ID                                 : A_DTS
Duration                                 : 2 h 41 min
Bit rate mode                            : Variable / Constant
Bit rate                                 : 3 840 kb/s / 1 509 kb/s
Channel(s)                               : 8 channels / 6 channels
Channel positions                        : Front: L C R, Side: L R, Back: L R, LFE / Front: L C R, Side: L R, LFE
Sampling rate                            : 48.0 kHz
Frame rate                               : 93.750 FPS (512 SPF)
Bit depth                                : 24 bits
Compression mode                         : Lossless / Lossy
Stream size                              : 4.26 GiB (9%)
Title                                    : The.Bridge.on.the.River.Kwai.1957.2160p.BluRay.x265.10bit.HDR.DTS-HD.MA.TrueHD.7.1.Atmos-SWTYBLZ
Language                                 : English
Default                                  : No
Forced                                   : No

Audio #3
ID                                       : 4
Format                                   : AC-3
Format/Info                              : Audio Coding 3
Codec ID                                 : A_AC3
Duration                                 : 2 h 41 min
Bit rate mode                            : Constant
Bit rate                                 : 640 kb/s
Channel(s)                               : 6 channels
Channel positions                        : Front: L C R, Side: L R, LFE
Sampling rate                            : 48.0 kHz
Frame rate                               : 31.250 FPS (1536 SPF)
Bit depth                                : 16 bits
Compression mode                         : Lossy
Stream size                              : 739 MiB (2%)
Title                                    : The.Bridge.on.the.River.Kwai.1957.2160p.BluRay.x265.10bit.HDR.DTS-HD.MA.TrueHD.7.1.Atmos-SWTYBLZ
Language                                 : English
Service kind                             : Complete Main
Default                                  : No
Forced                                   : No

Text #1
ID                                       : 5
Format                                   : UTF-8
Codec ID                                 : S_TEXT/UTF8
Codec ID/Info                            : UTF-8 Plain Text
Duration                                 : 2 h 34 min
Bit rate                                 : 44 b/s
Count of elements                        : 1346
Stream size                              : 51.0 KiB (0%)
Title                                    : English-SRT
Language                                 : English
Default                                  : Yes
Forced                                   : No

Text #2
ID                                       : 6
Format                                   : PGS
Muxing mode                              : zlib
Codec ID                                 : S_HDMV/PGS
Codec ID/Info                            : Picture based subtitle format used on BDs/HD-DVDs
Duration                                 : 2 h 40 min
Bit rate                                 : 28.7 kb/s
Count of elements                        : 3130
Stream size                              : 32.9 MiB (0%)
Title                                    : English-SDH-PGS
Language                                 : English
Default                                  : No
Forced                                   : No

Text #3
ID                                       : 7
Format                                   : PGS
Muxing mode                              : zlib
Codec ID                                 : S_HDMV/PGS
Codec ID/Info                            : Picture based subtitle format used on BDs/HD-DVDs
Duration                                 : 2 h 36 min
Bit rate                                 : 26.2 kb/s
Count of elements                        : 2760
Stream size                              : 29.4 MiB (0%)
Title                                    : English-PGS
Language                                 : English
Default                                  : No
Forced                                   : No

Text #4
ID                                       : 8
Format                                   : PGS
Muxing mode                              : zlib
Codec ID                                 : S_HDMV/PGS
Codec ID/Info                            : Picture based subtitle format used on BDs/HD-DVDs
Duration                                 : 2 h 34 min
Bit rate                                 : 12.6 kb/s
Count of elements                        : 2637
Stream size                              : 13.9 MiB (0%)
Title                                    : Arabic-PGS
Language                                 : Arabic
Default                                  : No
Forced                                   : No

Text #5
ID                                       : 9
Format                                   : PGS
Muxing mode                              : zlib
Codec ID                                 : S_HDMV/PGS
Codec ID/Info                            : Picture based subtitle format used on BDs/HD-DVDs
Duration                                 : 2 h 36 min
Bit rate                                 : 23.3 kb/s
Count of elements                        : 2776
Stream size                              : 26.1 MiB (0%)
Title                                    : Chinese-Simplified-PGS
Language                                 : Chinese
Default                                  : No
Forced                                   : No

Text #6
ID                                       : 10
Format                                   : PGS
Muxing mode                              : zlib
Codec ID                                 : S_HDMV/PGS
Codec ID/Info                            : Picture based subtitle format used on BDs/HD-DVDs
Duration                                 : 2 h 35 min
Bit rate                                 : 19.0 kb/s
Count of elements                        : 2776
Stream size                              : 21.0 MiB (0%)
Title                                    : Chinese-Traditional-PGS
Language                                 : Chinese
Default                                  : No
Forced                                   : No

Text #7
ID                                       : 11
Format                                   : PGS
Muxing mode                              : zlib
Codec ID                                 : S_HDMV/PGS
Codec ID/Info                            : Picture based subtitle format used on BDs/HD-DVDs
Duration                                 : 2 h 34 min
Bit rate                                 : 22.8 kb/s
Count of elements                        : 2635
Stream size                              : 25.3 MiB (0%)
Title                                    : Czech-PGS
Language                                 : Czech
Default                                  : No
Forced                                   : No

Text #8
ID                                       : 12
Format                                   : PGS
Muxing mode                              : zlib
Codec ID                                 : S_HDMV/PGS
Codec ID/Info                            : Picture based subtitle format used on BDs/HD-DVDs
Duration                                 : 2 h 35 min
Bit rate                                 : 23.8 kb/s
Count of elements                        : 2286
Stream size                              : 26.4 MiB (0%)
Title                                    : Danish-PGS
Language                                 : Danish
Default                                  : No
Forced                                   : No

Text #9
ID                                       : 13
Format                                   : PGS
Muxing mode                              : zlib
Codec ID                                 : S_HDMV/PGS
Codec ID/Info                            : Picture based subtitle format used on BDs/HD-DVDs
Duration                                 : 2 h 35 min
Bit rate                                 : 20.9 kb/s
Count of elements                        : 1998
Stream size                              : 23.2 MiB (0%)
Title                                    : Dutch-PGS
Language                                 : Dutch
Default                                  : No
Forced                                   : No

Text #10
ID                                       : 14
Format                                   : PGS
Muxing mode                              : zlib
Codec ID                                 : S_HDMV/PGS
Codec ID/Info                            : Picture based subtitle format used on BDs/HD-DVDs
Duration                                 : 2 h 34 min
Bit rate                                 : 20.3 kb/s
Count of elements                        : 1789
Stream size                              : 22.5 MiB (0%)
Title                                    : Finnish-PGS
Language                                 : Finnish
Default                                  : No
Forced                                   : No

Text #11
ID                                       : 15
Format                                   : PGS
Muxing mode                              : zlib
Codec ID                                 : S_HDMV/PGS
Codec ID/Info                            : Picture based subtitle format used on BDs/HD-DVDs
Duration                                 : 2 h 36 min
Bit rate                                 : 22.5 kb/s
Count of elements                        : 2609
Stream size                              : 25.3 MiB (0%)
Title                                    : French-PGS
Language                                 : French
Default                                  : No
Forced                                   : No

Text #12
ID                                       : 16
Format                                   : PGS
Muxing mode                              : zlib
Codec ID                                 : S_HDMV/PGS
Codec ID/Info                            : Picture based subtitle format used on BDs/HD-DVDs
Duration                                 : 2 h 35 min
Bit rate                                 : 27.4 kb/s
Count of elements                        : 2768
Stream size                              : 30.4 MiB (0%)
Title                                    : German-PGS
Language                                 : German
Default                                  : No
Forced                                   : No

Text #13
ID                                       : 17
Format                                   : PGS
Muxing mode                              : zlib
Codec ID                                 : S_HDMV/PGS
Codec ID/Info                            : Picture based subtitle format used on BDs/HD-DVDs
Duration                                 : 2 h 36 min
Bit rate                                 : 21.7 kb/s
Count of elements                        : 2770
Stream size                              : 24.3 MiB (0%)
Title                                    : Greek-PGS
Language                                 : Greek
Default                                  : No
Forced                                   : No

Text #14
ID                                       : 18
Format                                   : PGS
Muxing mode                              : zlib
Codec ID                                 : S_HDMV/PGS
Codec ID/Info                            : Picture based subtitle format used on BDs/HD-DVDs
Duration                                 : 2 h 35 min
Bit rate                                 : 18.5 kb/s
Count of elements                        : 2776
Stream size                              : 20.6 MiB (0%)
Title                                    : Hebrew-PGS
Language                                 : Hebrew
Default                                  : No
Forced                                   : No

Text #15
ID                                       : 19
Format                                   : PGS
Muxing mode                              : zlib
Codec ID                                 : S_HDMV/PGS
Codec ID/Info                            : Picture based subtitle format used on BDs/HD-DVDs
Duration                                 : 2 h 35 min
Bit rate                                 : 19.6 kb/s
Count of elements                        : 2716
Stream size                              : 21.7 MiB (0%)
Title                                    : Hungarian-PGS
Language                                 : Hungarian
Default                                  : No
Forced                                   : No

Text #16
ID                                       : 20
Format                                   : PGS
Muxing mode                              : zlib
Codec ID                                 : S_HDMV/PGS
Codec ID/Info                            : Picture based subtitle format used on BDs/HD-DVDs
Duration                                 : 2 h 36 min
Bit rate                                 : 28.7 kb/s
Count of elements                        : 2744
Stream size                              : 32.3 MiB (0%)
Title                                    : Indonesian-PGS
Language                                 : Indonesian
Default                                  : No
Forced                                   : No

Text #17
ID                                       : 21
Format                                   : PGS
Muxing mode                              : zlib
Codec ID                                 : S_HDMV/PGS
Codec ID/Info                            : Picture based subtitle format used on BDs/HD-DVDs
Duration                                 : 2 h 35 min
Bit rate                                 : 24.5 kb/s
Count of elements                        : 2784
Stream size                              : 27.2 MiB (0%)
Title                                    : Italian-PGS
Language                                 : Italian
Default                                  : No
Forced                                   : No

Text #18
ID                                       : 22
Format                                   : PGS
Muxing mode                              : zlib
Codec ID                                 : S_HDMV/PGS
Codec ID/Info                            : Picture based subtitle format used on BDs/HD-DVDs
Duration                                 : 2 h 34 min
Bit rate                                 : 17.0 kb/s
Count of elements                        : 1984
Stream size                              : 18.8 MiB (0%)
Title                                    : Japanese-PGS
Language                                 : Japanese
Default                                  : No
Forced                                   : No

Text #19
ID                                       : 23
Format                                   : PGS
Muxing mode                              : zlib
Codec ID                                 : S_HDMV/PGS
Codec ID/Info                            : Picture based subtitle format used on BDs/HD-DVDs
Duration                                 : 2 h 38 min
Bit rate                                 : 19.5 kb/s
Count of elements                        : 2784
Stream size                              : 22.1 MiB (0%)
Title                                    : Korean-PGS
Language                                 : Korean
Default                                  : No
Forced                                   : No

Text #20
ID                                       : 24
Format                                   : PGS
Muxing mode                              : zlib
Codec ID                                 : S_HDMV/PGS
Codec ID/Info                            : Picture based subtitle format used on BDs/HD-DVDs
Duration                                 : 2 h 35 min
Bit rate                                 : 18.6 kb/s
Count of elements                        : 1754
Stream size                              : 20.6 MiB (0%)
Title                                    : Norwegian-PGS
Language                                 : Norwegian
Default                                  : No
Forced                                   : No

Text #21
ID                                       : 25
Format                                   : PGS
Muxing mode                              : zlib
Codec ID                                 : S_HDMV/PGS
Codec ID/Info                            : Picture based subtitle format used on BDs/HD-DVDs
Duration                                 : 2 h 35 min
Bit rate                                 : 18.2 kb/s
Count of elements                        : 2698
Stream size                              : 20.2 MiB (0%)
Title                                    : Polish-PGS
Language                                 : Polish
Default                                  : No
Forced                                   : No

Text #22
ID                                       : 26
Format                                   : PGS
Muxing mode                              : zlib
Codec ID                                 : S_HDMV/PGS
Codec ID/Info                            : Picture based subtitle format used on BDs/HD-DVDs
Duration                                 : 2 h 38 min
Bit rate                                 : 22.4 kb/s
Count of elements                        : 2778
Stream size                              : 25.4 MiB (0%)
Title                                    : Portuguese-Brazilian-PGS
Language                                 : Portuguese
Default                                  : No
Forced                                   : No

Text #23
ID                                       : 27
Format                                   : PGS
Muxing mode                              : zlib
Codec ID                                 : S_HDMV/PGS
Codec ID/Info                            : Picture based subtitle format used on BDs/HD-DVDs
Duration                                 : 2 h 38 min
Bit rate                                 : 24.4 kb/s
Count of elements                        : 2660
Stream size                              : 27.6 MiB (0%)
Title                                    : Portuguese-PGS
Language                                 : Portuguese
Default                                  : No
Forced                                   : No

Text #24
ID                                       : 28
Format                                   : PGS
Muxing mode                              : zlib
Codec ID                                 : S_HDMV/PGS
Codec ID/Info                            : Picture based subtitle format used on BDs/HD-DVDs
Duration                                 : 2 h 36 min
Bit rate                                 : 23.6 kb/s
Count of elements                        : 2704
Stream size                              : 26.4 MiB (0%)
Title                                    : Slovak-PGS
Language                                 : Slovak
Default                                  : No
Forced                                   : No

Text #25
ID                                       : 29
Format                                   : PGS
Muxing mode                              : zlib
Codec ID                                 : S_HDMV/PGS
Codec ID/Info                            : Picture based subtitle format used on BDs/HD-DVDs
Duration                                 : 2 h 34 min
Bit rate                                 : 21.6 kb/s
Count of elements                        : 2703
Stream size                              : 24.0 MiB (0%)
Title                                    : Spanish-Castilian-PGS
Language                                 : Spanish
Default                                  : No
Forced                                   : No

Text #26
ID                                       : 30
Format                                   : PGS
Muxing mode                              : zlib
Codec ID                                 : S_HDMV/PGS
Codec ID/Info                            : Picture based subtitle format used on BDs/HD-DVDs
Duration                                 : 2 h 38 min
Bit rate                                 : 28.0 kb/s
Count of elements                        : 2952
Stream size                              : 31.7 MiB (0%)
Title                                    : Spanish-Latin-American-PGS
Language                                 : Spanish
Default                                  : No
Forced                                   : No

Text #27
ID                                       : 31
Format                                   : PGS
Muxing mode                              : zlib
Codec ID                                 : S_HDMV/PGS
Codec ID/Info                            : Picture based subtitle format used on BDs/HD-DVDs
Duration                                 : 2 h 36 min
Bit rate                                 : 18.0 kb/s
Count of elements                        : 1741
Stream size                              : 20.2 MiB (0%)
Title                                    : Swedish-PGS
Language                                 : Swedish
Default                                  : No
Forced                                   : No

Text #28
ID                                       : 32
Format                                   : PGS
Muxing mode                              : zlib
Codec ID                                 : S_HDMV/PGS
Codec ID/Info                            : Picture based subtitle format used on BDs/HD-DVDs
Duration                                 : 2 h 35 min
Bit rate                                 : 22.9 kb/s
Count of elements                        : 2776
Stream size                              : 25.3 MiB (0%)
Title                                    : Thai-PGS
Language                                 : Thai
Default                                  : No
Forced                                   : No

Text #29
ID                                       : 33
Format                                   : PGS
Muxing mode                              : zlib
Codec ID                                 : S_HDMV/PGS
Codec ID/Info                            : Picture based subtitle format used on BDs/HD-DVDs
Duration                                 : 2 h 35 min
Bit rate                                 : 25.8 kb/s
Count of elements                        : 2776
Stream size                              : 28.6 MiB (0%)
Title                                    : Turkish-PGS
Language                                 : Turkish
Default                                  : No
Forced                                   : No

Menu
00:00:00.000                             : en:Start
00:10:54.737                             : en:\"Colonel Bogey March\"
00:21:00.801                             : en:\"I am Colonel Saito.\"
00:31:06.114                             : en:Nicholson mets Shears
00:38:43.238                             : en:Officer\'s meeting
00:50:24.271                             : en:A Point of Difference
01:00:10.607                             : en:The oven
01:09:42.804                             : en:Right moment & company
01:20:59.271                             : en:How not to build a bridge
01:32:47.854                             : en:Five minutes with Nicholson
01:41:14.110                             : en:A successful escape
01:50:34.628                             : en:A late supper with Saito
02:03:20.268                             : en:Shears leaves paradise
02:14:36.694                             : en:Victory & defeat
02:24:37.961                             : en:Inspection
02:32:33.102                             : en:Setting Saito straight







#1楼
发帖时间:2017-12-06 20:51:32   |   回复数:4
liyouchai
超凡入圣№
谢谢楼主分享资源
7天前 #2楼
911degrees
超凡入圣№
非常感谢,谢谢分享
6天前 #3楼
blue23
隐世仙人♂
感谢楼主分享
6天前 #4楼
jokingcheung
一代宗师
谢谢分享
5天前 #5楼
游客组