aoloffline
版主

[更 早] [欧美] [动作] [蓝光原盘] [BT下载]金刚 King.Kong.2005.EXTENDED.2160p.BluRay.x265.10bit.HDR.DTS-SWTYBLZ 34GB

-->

King.Kong.2005.EXTENDED.2160p.BluRay.x265.10bit.HDR.DTS-X.7.1-SWTYBLZ

◎译  名 金刚

◎片  名 King Kong

◎年  代 2005

◎产  地 新西兰/美国/德国

◎类  别 剧情/动作/爱情/冒险

◎语  言 英语

◎上映日期 2005-12-05(纽约首映)/2005-12-14(美国)/2006-01-12(中国大陆)

◎IMDb评分  7.2/10 from 342,395 users

◎IMDb链接  http://www.imdb.com/title/tt0360717/

◎豆瓣评分 7.8/10 from 169,611 users

◎豆瓣链接 https://movie.douban.com/subject/1309043/

◎BT之家整理 http://www.btbtt.co

◎片  长 187分钟/201分钟(加长版)

◎导  演 彼得·杰克逊 Peter Jackson

◎主  演 娜奥米·沃茨 Naomi Watts

      杰克·布莱克 Jack Black

      艾德里安·布洛迪 Adrien Brody

      托马斯·克莱舒曼 Thomas Kretschmann

      科林·汉克斯 Colin Hanks

      安迪·瑟金斯 Andy Serkis

      伊万·帕克 Evan Parke

      杰米·贝尔 Jamie Bell

      洛博·陈 Lobo Chan

      约翰·萨莫尔 John Sumner

      克里格·霍尔 Craig Hall

      凯尔·钱德勒 Kyle Chandler

      威廉·约翰逊 William Johnson

      马克·哈德洛 Mark Hadlow

      杰拉丁·博若飞 Geraldine Brophy

      大卫·皮图 David Pittu


◎简  介


  导演率领拍摄组来到神秘的骷髅岛开始了一部电影的拍摄,女主角是漂亮娇小的安(娜奥米•沃茨 Naomi Watts 饰),她在纽约的演艺事业陷入了低谷,这是她时来运转的大好机会。他们乘坐轮船来到岛上,却不知在岛上即将要险象横生。

  正当导演要开始开机拍摄时,他们遭到了当地土著的袭击,几个随行人员遇难身亡。摄制组慌忙逃离,幸好起航离去,却发现不见了女主角安。

  原来安土著野人抓走,被当作祭品。安尖声惊叫,引来了传说中骷髅岛的猩猩——金刚的关注。金刚在岛上很有霸气,连恐龙都要忌它几分。然而,野兽爱上了美人,金刚搭救安脱离困境,不料却让自己陷入了一场悲剧。


◎获奖情况


  第78届奥斯卡金像奖  (2006)

  最佳视觉效果 乔·莱特瑞 / 布莱恩·范特·赫尔 / 克里斯蒂安·瑞沃斯 / 理查德·泰勒

  最佳混音 克里斯托弗·博伊斯 / 迈克尔·斯曼内科  / 迈克·亨吉斯 / 哈蒙德·匹克

  最佳音效剪辑 伊桑·范德莱恩   / 迈克·霍普金斯 

  最佳艺术指导(提名) 西蒙·布赖特 / 格兰特·梅杰 / 丹·汉纳


  第59届英国电影学院奖  (2006)

  电影奖 最佳艺术指导(提名) 格兰特·梅杰

  电影奖 最佳特殊视觉效果 克里斯蒂安·瑞沃斯 / 布莱恩·范特·赫尔 / 理查德·泰勒 / 乔·莱特瑞

  电影奖 最佳音效(提名) 哈蒙德·匹克 / 迈克·霍普金斯  / 伊桑·范德莱恩   / 克里斯托弗·博伊斯


  第15届MTV电影奖  (2006)

  MTV电影奖 年度电影(提名)

  MTV电影奖 最佳打斗(提名)


  第12届中国电影华表奖  (2007)

  优秀译制片奖(提名)


Video
ID                                       : 1
Format                                   : HEVC
Format/Info                              : High Efficiency Video Coding
Format profile                           : Main 10@L5.1@High
Codec ID                                 : V_MPEGH/ISO/HEVC
Duration                                 : 3 h 20 min
Bit rate                                 : 16.7 Mb/s
Width                                    : 3 840 pixels
Height                                   : 1 632 pixels
Display aspect ratio                     : 2.35:1
Frame rate mode                          : Constant
Frame rate                               : 23.976 (24000/1001) FPS
Color space                              : YUV
Chroma subsampling                       : 4:2:0 (Type 2)
Bit depth                                : 10 bits
Bits/(Pixel*Frame)                       : 0.111
Stream size                              : 23.3 GiB (67%)
Title                                    : King.Kong.2005.EXTENDED.2160p.BluRay.x265.10bit.HDR.DTS-X.7.1-SWTYBLZ
Writing library                          : x265 2.5b4a5bcfe29c7:[Windows][GCC 4.9.3][64 bit] 10bit
Encoding settings                        : cpuid=1173503 / frame-threads=16 / numa-pools=24,24,24,24 / wpp / no-pmode / no-pme / no-psnr / no-ssim / log-level=2 / input-csp=1 / input-res=3840x1632 / interlace=0 / total-frames=0 / level-idc=51 / high-tier=1 / uhd-bd=0 / ref=3 / no-allow-non-conformance / repeat-headers / annexb / aud / hrd / info / hash=0 / no-temporal-layers / no-open-gop / min-keyint=1 / keyint=24 / bframes=4 / b-adapt=2 / b-pyramid / bframe-bias=0 / rc-lookahead=25 / lookahead-slices=4 / scenecut=40 / no-intra-refresh / ctu=64 / min-cu-size=8 / no-rect / no-amp / max-tu-size=32 / tu-inter-depth=1 / tu-intra-depth=1 / limit-tu=0 / rdoq-level=0 / dynamic-rd=0.00 / no-ssim-rd / signhide / no-tskip / nr-intra=0 / nr-inter=0 / no-constrained-intra / strong-intra-smoothing / max-merge=2 / limit-refs=3 / no-limit-modes / me=1 / subme=2 / merange=57 / temporal-mvp / weightp / no-weightb / no-analyze-src-pics / deblock=0:0 / no-sao / no-sao-non-deblock / rd=3 / no-early-skip / rskip / no-fast-intra / no-tskip-fast / no-cu-lossless / no-b-intra / rdpenalty=0 / psy-rd=2.00 / psy-rdoq=0.00 / no-rd-refine / analysis-reuse-mode=0 / no-lossless / cbqpoffs=0 / crqpoffs=0 / rc=crf / crf=18.0 / qcomp=0.60 / qpstep=4 / stats-write=0 / stats-read=0 / vbv-maxrate=160000 / vbv-bufsize=160000 / vbv-init=0.9 / crf-max=0.0 / crf-min=0.0 / ipratio=1.40 / pbratio=1.30 / aq-mode=1 / aq-strength=1.00 / cutree / zone-count=0 / no-strict-cbr / qg-size=32 / no-rc-grain / qpmax=69 / qpmin=0 / no-const-vbv / sar=1 / overscan=0 / videoformat=5 / range=0 / colorprim=9 / transfer=16 / colormatrix=9 / chromaloc=1 / chromaloc-top=2 / chromaloc-bottom=2 / display-window=0 / master-display=G(13250,34500)B(7500,3000)R(34000,16000)WP(15635,16450)L(10000000,50) / max-cll=1000,96 / min-luma=0 / max-luma=1023 / log2-max-poc-lsb=8 / vui-timing-info / vui-hrd-info / slices=1 / opt-qp-pps / opt-ref-list-length-pps / no-multi-pass-opt-rps / scenecut-bias=0.05 / no-opt-cu-delta-qp / no-aq-motion / hdr / hdr-opt / no-dhdr10-opt / analysis-reuse-level=5 / scale-factor=0 / refine-intra=0 / refine-inter=0 / refine-mv=0 / no-limit-sao / ctu-info=0
Language                                 : English
Default                                  : Yes
Forced                                   : No
Color range                              : Limited
Color primaries                          : BT.2020
Transfer characteristics                 : PQ
Matrix coefficients                      : BT.2020 non-constant
Mastering display color primaries        : R: x=0.680000 y=0.320000, G: x=0.265000 y=0.690000, B: x=0.150000 y=0.060000, White point: x=0.312700 y=0.329000
Mastering display luminance              : min: 0.0050 cd/m2, max: 1000.0000 cd/m2
Maximum Content Light Level              : 1000 cd/m2
Maximum Frame-Average Light Level        : 96 cd/m2

Audio #1
ID                                       : 2
Format                                   : DTS
Format/Info                              : Digital Theater Systems
Format profile                           : X / MA / Core
Codec ID                                 : A_DTS
Duration                                 : 3 h 20 min
Bit rate mode                            : Variable / Variable / Constant
Bit rate                                 : 7 413 kb/s / 7 413 kb/s / 1 509 kb/s
Channel(s)                               : Object Based / 8 channels / 6 channels
Channel positions                        : Object Based / Front: L C R, Side: L R, Back: L R, LFE / Front: L C R, Side: L R, LFE
Sampling rate                            :  / 48.0 kHz / 48.0 kHz
Frame rate                               : 93.750 FPS (512 SPF)
Bit depth                                :  / 24 bits / 24 bits
Compression mode                         :  / Lossless / Lossy
Stream size                              : 10.4 GiB (30%)
Title                                    : King.Kong.2005.EXTENDED.2160p.BluRay.x265.10bit.HDR.DTS-X.7.1-SWTYBLZ
Language                                 : English
Default                                  : Yes
Forced                                   : No

Audio #2
ID                                       : 3
Format                                   : AC-3
Format/Info                              : Audio Coding 3
Codec ID                                 : A_AC3
Duration                                 : 3 h 20 min
Bit rate mode                            : Constant
Bit rate                                 : 640 kb/s
Channel(s)                               : 6 channels
Channel positions                        : Front: L C R, Side: L R, LFE
Sampling rate                            : 48.0 kHz
Frame rate                               : 31.250 FPS (1536 SPF)
Bit depth                                : 16 bits
Compression mode                         : Lossy
Stream size                              : 916 MiB (3%)
Title                                    : King.Kong.2005.EXTENDED.2160p.BluRay.x265.10bit.HDR.DTS-X.7.1-SWTYBLZ
Language                                 : English
Service kind                             : Complete Main
Default                                  : No
Forced                                   : No

Text #1
ID                                       : 4
Format                                   : UTF-8
Codec ID                                 : S_TEXT/UTF8
Codec ID/Info                            : UTF-8 Plain Text
Duration                                 : 3 h 8 min
Bit rate                                 : 26 b/s
Count of elements                        : 1252
Stream size                              : 36.4 KiB (0%)
Title                                    : English-SRT
Language                                 : English
Default                                  : Yes
Forced                                   : No

Text #2
ID                                       : 5
Format                                   : PGS
Muxing mode                              : zlib
Codec ID                                 : S_HDMV/PGS
Codec ID/Info                            : Picture based subtitle format used on BDs/HD-DVDs
Duration                                 : 3 h 9 min
Bit rate                                 : 21.8 kb/s
Count of elements                        : 3438
Stream size                              : 29.5 MiB (0%)
Title                                    : English-SDH-PGS
Language                                 : English
Default                                  : No
Forced                                   : No

Text #3
ID                                       : 6
Format                                   : PGS
Muxing mode                              : zlib
Codec ID                                 : S_HDMV/PGS
Codec ID/Info                            : Picture based subtitle format used on BDs/HD-DVDs
Duration                                 : 3 h 18 min
Bit rate                                 : 16.7 kb/s
Count of elements                        : 2592
Stream size                              : 23.7 MiB (0%)
Title                                    : French-PGS
Language                                 : French
Default                                  : No
Forced                                   : No

Text #4
ID                                       : 7
Format                                   : PGS
Muxing mode                              : zlib
Codec ID                                 : S_HDMV/PGS
Codec ID/Info                            : Picture based subtitle format used on BDs/HD-DVDs
Duration                                 : 3 h 18 min
Bit rate                                 : 10.9 kb/s
Count of elements                        : 2370
Stream size                              : 15.6 MiB (0%)
Title                                    : Japanese-PGS
Language                                 : Japanese
Default                                  : No
Forced                                   : No

Text #5
ID                                       : 8
Format                                   : PGS
Muxing mode                              : zlib
Codec ID                                 : S_HDMV/PGS
Codec ID/Info                            : Picture based subtitle format used on BDs/HD-DVDs
Duration                                 : 3 h 17 min
Bit rate                                 : 15.5 kb/s
Count of elements                        : 2520
Stream size                              : 21.9 MiB (0%)
Title                                    : Brazilian-Portuguese-PGS
Language                                 : Portuguese
Default                                  : No
Forced                                   : No

Text #6
ID                                       : 9
Format                                   : PGS
Muxing mode                              : zlib
Codec ID                                 : S_HDMV/PGS
Codec ID/Info                            : Picture based subtitle format used on BDs/HD-DVDs
Duration                                 : 3 h 18 min
Bit rate                                 : 15.4 kb/s
Count of elements                        : 2596
Stream size                              : 22.0 MiB (0%)
Title                                    : Spanish-PGS
Language                                 : Spanish
Default                                  : No
Forced                                   : No

Menu
00:00:00.000                             : en:Opening - New York 1933
00:03:02.807                             : en:Vaudeville
00:04:20.802                             : en:Theater Closed
00:06:43.945                             : enenham\'s Screening
00:10:29.670                             : en:\"Defeat Is Always Momentary\"
00:12:33.210                             : en:A Fateful Meeting
00:14:18.399                             : en:\"A Woman Born to Play this Role\"
00:17:40.893                             : en:The Moving Picture Ship
00:20:25.849                             : en:An Early Departure
00:24:13.285                             : en:Jack\'s \"Quarters\"
00:25:55.637                             : en:Bruce Settles In
00:26:13.363                             : en:Jimmy\'s Story
00:28:00.637                             : en:Ann Meets Jack Driscoll
00:30:29.536                             : en:A Moustache for Bruce
00:31:07.448                             : en:\"We\'re Filming on an Island Now?\"
00:33:07.360                             : en:Filming a Classic Scene
00:34:14.510                             : en:Romance on the Venture
00:36:55.880                             : en:The Last Blank Space on the Map
00:39:45.674                             : en:A Long Sea Voyage
00:41:07.506                             : en:\"It\'s in the Sub-Text\"
00:42:31.715                             : en:A Change of Course
00:43:45.873                             : en:Skull Island
00:52:20.178                             : en:Expedition Ashore
00:55:49.929                             : en:The Inhabitants of Skull Island
01:02:07.265                             : en:Ann\'s Abduction
01:07:32.798                             : en:The Sacrifice
01:12:39.480                             : en:Rescue Party
01:14:14.658                             : en:Ceratops Attack
01:16:58.947                             : en:The Killing Ground
01:20:23.485                             : eniscovering the Footprint
01:22:42.165                             : en:Brontosaurus Stampede
01:29:20.521                             : enlaying Dead
01:30:16.577                             : en:The Party Is Divided
01:32:09.815                             : en:Ann Disarms Kong
01:38:55.346                             : en:The Swamp Journey
01:44:44.111                             : en:Encountering the Moa Bird
01:46:17.954                             : en:The Log Chasm
01:50:02.012                             : en:The T-Rex Battle
02:01:41.252                             : en:The Insect Pit
02:09:08.657                             : en:\"Beautiful\"
02:13:18.990                             : enenham\'s Plan
02:15:51.476                             : en:Jack Rescues Ann
02:21:36.029                             : en:Captured
02:30:16.507                             : en:\"Eighth Wonder of the World\"
02:32:11.705                             : en:\"Cry Havoc!\"
02:34:02.149                             : en:Carl Denham Presents Kong
02:43:14.784                             : en:Kong in New York
02:47:50.560                             : en:Reunited
02:52:23.875                             : en:Under Attack
02:54:05.268                             : en:The Empire State Building
02:56:23.989                             : en:Kong\'s Last Stand
03:03:57.484                             : en:\"It was Beauty Killed the Beast\"
03:10:36.049                             : en:End Credits






1 个附件 售价 大小 下载 时间

King.Kong.2005.EXTENDED.2160p.BluRay.x265.10bit.HDR.DTS-X.7.1-SWTYBLZ[btbtt.me].torrent 0 金币 87.71K 847 次 4天前

#1楼
发帖时间:2017-12-07 11:17:16   |   回复数:7
fk888
武林高手
感谢分享~~~
4天前 #2楼
911degrees
超凡入圣№
非常感谢,谢谢分享
4天前 #3楼
blue23
隐世仙人♂
感谢楼主分享
4天前 #4楼
tanchoohoon
武林盟主
感谢楼主的无私分享
4天前 #5楼
liyouchai
超凡入圣№
谢谢楼主分享资源
3天前 #6楼
jokingcheung
一代宗师
谢谢分享
3天前 #7楼
rootchao
武林高手
谢谢分享
1天前 #8楼
游客组