aoloffline
版主

[2015] [欧美] [动画] [BD-2160P] [BT下载]小黄人大眼萌 Minions.2015.2160p.BluRay.x264.8bit.SDR.DTS-SWTYBLZ 21GB

-->

Minions.2015.2160p.BluRay.x264.8bit.SDR.DTS-HD.MA.TrueHD.7.1.Atmos-SWTYBLZ

◎译  名 小黄人大眼萌/小黄人/迷你兵团(港)/小小兵(台)/小黄人大电影

◎片  名 Minions

◎年  代 2015

◎产  地 美国

◎类  别 喜剧/动画

◎语  言 英语/西班牙语

◎上映日期 2015-07-10(美国)/2015-09-13(中国大陆)

◎IMDb评分  6.4/10 from 171,957 users

◎IMDb链接  http://www.imdb.com/title/tt2293640/

◎豆瓣评分 7.3/10 from 133,491 users

◎豆瓣链接 https://movie.douban.com/subject/11624706/

◎片  长 91分钟

◎导  演 凯尔·巴尔达 Kyle Balda / 皮埃尔·科芬 Pierre Coffin

◎BT之家整理 http://www.btbtt.co

◎主  演 桑德拉·布洛克 Sandra Bullock

      乔恩·哈姆 Jon Hamm

      迈克尔·基顿 Michael Keaton

      艾莉森·珍妮 Allison Janney

      史蒂夫·库根 Steve Coogan

      珍妮弗·桑德斯 Jennifer Saunders

      杰弗里·拉什 Geoffrey Rush

      史蒂夫·卡瑞尔 Steve Carell

      皮埃尔·科芬 Pierre Coffin

      凯蒂·米克松 Katy Mixon

      迈克尔·贝亚蒂 Michael Beattie

      真田广之 Hiroyuki Sanada

      大卫·罗森鲍姆 Dave Rosenbaum

      亚历克斯·道丁 Alex Dowding

      保罗·索恩利 Paul Thornley


◎简  介


  从地球诞生之初,一种奇怪的生物便出现在这颗蓝色的星球上。他们不断进化、蜕变,终于成为我们所熟悉的小黄人的模样。小黄人们毕生寻找邪恶的老大,以成为他的部属为荣,但是千百万年来的努力最终化成一场空。经历了一段长久的沉寂,名叫凯文的小黄人决定再度上路,他带着热爱音乐的斯图尔特、成事不足败事有余的鲍勃,漂洋过海来到了1968年的美国。三个小家伙偶然听说奥兰多即将召开“恶人大会”,于是忙不迭地赶了过去,并且阴差阳错成为女魔头斯嘉丽·杀人狂(桑德拉·布洛克 Sandra Bullock 配音)的随从。很快斯嘉丽交给他们一个任务,那就是窃取英国女王的王冠。

  不知轻重的小家伙们笑嘻嘻地出征,等待他们的将是前所未有的大冒险……


◎获奖情况


  第69届英国电影学院奖  (2016)

  电影奖 最佳动画片(提名) 凯尔·巴尔达 / 皮埃尔·柯芬


  第43届动画安妮奖  (2016)

  最佳配音(提名) 乔恩·哈姆 / 皮埃尔·柯芬

  最佳分镜(提名)

  最佳艺术指导(提名)

  最佳角色设计(提名)

  最佳动画效果(提名)

  最佳动画角色(提名)


  第27届美国制片人工会奖  (2016)

  最佳动画片制片人奖(提名)


  第2届豆瓣电影年度榜单  (2015)

  9月最受关注电影(提名)


Video
ID                                       : 1
Format                                   : AVC
Format/Info                              : Advanced Video Codec
Format profile                           : High@L5.1
Format settings                          : CABAC / 5 Ref Frames
Format settings, CABAC                   : Yes
Format settings, RefFrames               : 5 frames
Codec ID                                 : V_MPEG4/ISO/AVC
Duration                                 : 1 h 30 min
Bit rate                                 : 24.0 Mb/s
Width                                    : 3 840 pixels
Height                                   : 2 076 pixels
Display aspect ratio                     : 1.85:1
Frame rate mode                          : Constant
Frame rate                               : 23.976 (24000/1001) FPS
Color space                              : YUV
Chroma subsampling                       : 4:2:0
Bit depth                                : 8 bits
Scan type                                : Progressive
Bits/(Pixel*Frame)                       : 0.125
Stream size                              : 15.2 GiB (71%)
Title                                    : Minions.2015.2160p.BluRay.x264.8bit.SDR.DTS-HD.MA.TrueHD.7.1.Atmos-SWTYBLZ
Writing library                          : x264 core 148 r2748 97eaef2
Encoding settings                        : cabac=1 / ref=5 / deblock=1:1:1 / analyse=0x3:0x113 / me=umh / subme=10 / psy=1 / psy_rd=0.40:0.00 / mixed_ref=1 / me_range=48 / chroma_me=1 / trellis=2 / 8x8dct=1 / cqm=0 / deadzone=21,11 / fast_pskip=1 / chroma_qp_offset=-2 / threads=36 / lookahead_threads=4 / sliced_threads=0 / nr=0 / decimate=0 / interlaced=0 / bluray_compat=0 / constrained_intra=0 / bframes=5 / b_pyramid=2 / b_adapt=2 / b_bias=0 / direct=3 / weightb=1 / open_gop=0 / weightp=2 / keyint=250 / keyint_min=23 / scenecut=40 / intra_refresh=0 / rc_lookahead=50 / rc=crf / mbtree=1 / crf=18.0 / qcomp=0.60 / qpmin=0 / qpmax=69 / qpstep=4 / ip_ratio=1.40 / aq=1:0.60
Language                                 : English
Default                                  : Yes
Forced                                   : No

Audio #1
ID                                       : 2
Format                                   : TrueHD
Format profile                           : TrueHD+Atmos / TrueHD
Codec ID                                 : A_TRUEHD
Duration                                 : 1 h 30 min
Bit rate mode                            : Variable
Bit rate                                 : 5 264 kb/s
Maximum bit rate                         : 7 269 kb/s
Channel(s)                               : Object Based / 8 channels
Channel positions                        : Object Based / Front: L C R, Side: L R, Back: L R, LFE
Sampling rate                            :  / 48.0 kHz
Frame rate                               : 1 200.000 FPS (40 SPF)
Compression mode                         : Lossless
Delay relative to video                  : 32 ms
Stream size                              : 3.34 GiB (16%)
Title                                    : Minions.2015.2160p.BluRay.x264.8bit.SDR.DTS-HD.MA.TrueHD.7.1.Atmos-SWTYBLZ
Language                                 : English
Default                                  : Yes
Forced                                   : No

Audio #2
ID                                       : 3
Format                                   : DTS
Format/Info                              : Digital Theater Systems
Format profile                           : MA / Core
Codec ID                                 : A_DTS
Duration                                 : 1 h 30 min
Bit rate mode                            : Variable / Constant
Bit rate                                 : 3 960 kb/s / 1 509 kb/s
Channel(s)                               : 8 channels / 6 channels
Channel positions                        : Front: L C R, Side: L R, Back: L R, LFE / Front: L C R, Side: L R, LFE
Sampling rate                            : 48.0 kHz
Frame rate                               : 93.750 FPS (512 SPF)
Bit depth                                : 24 bits
Compression mode                         : Lossless / Lossy
Stream size                              : 2.52 GiB (12%)
Title                                    : Minions.2015.2160p.BluRay.x264.8bit.SDR.DTS-HD.MA.TrueHD.7.1.Atmos-SWTYBLZ
Language                                 : English
Default                                  : No
Forced                                   : No

Audio #3
ID                                       : 4
Format                                   : AC-3
Format/Info                              : Audio Coding 3
Codec ID                                 : A_AC3
Duration                                 : 1 h 30 min
Bit rate mode                            : Constant
Bit rate                                 : 640 kb/s
Channel(s)                               : 6 channels
Channel positions                        : Front: L C R, Side: L R, LFE
Sampling rate                            : 48.0 kHz
Frame rate                               : 31.250 FPS (1536 SPF)
Bit depth                                : 16 bits
Compression mode                         : Lossy
Delay relative to video                  : 31 ms
Stream size                              : 416 MiB (2%)
Title                                    : Minions.2015.2160p.BluRay.x264.8bit.SDR.DTS-HD.MA.TrueHD.7.1.Atmos-SWTYBLZ
Language                                 : English
Service kind                             : Complete Main
Default                                  : No
Forced                                   : No

Text #1
ID                                       : 5
Format                                   : UTF-8
Codec ID                                 : S_TEXT/UTF8
Codec ID/Info                            : UTF-8 Plain Text
Duration                                 : 1 h 29 min
Bit rate                                 : 45 b/s
Count of elements                        : 1132
Stream size                              : 30.0 KiB (0%)
Title                                    : English-SRT
Language                                 : English
Default                                  : Yes
Forced                                   : No

Text #2
ID                                       : 6
Format                                   : PGS
Muxing mode                              : zlib
Codec ID                                 : S_HDMV/PGS
Codec ID/Info                            : Picture based subtitle format used on BDs/HD-DVDs
Duration                                 : 1 h 30 min
Bit rate                                 : 45.3 kb/s
Count of elements                        : 3372
Stream size                              : 29.4 MiB (0%)
Title                                    : English-PGS
Language                                 : English
Default                                  : No
Forced                                   : No

Text #3
ID                                       : 7
Format                                   : PGS
Muxing mode                              : zlib
Codec ID                                 : S_HDMV/PGS
Codec ID/Info                            : Picture based subtitle format used on BDs/HD-DVDs
Duration                                 : 1 h 29 min
Bit rate                                 : 21.0 kb/s
Count of elements                        : 1232
Stream size                              : 13.4 MiB (0%)
Title                                    : Danish-PGS
Language                                 : Danish
Default                                  : No
Forced                                   : No

Text #4
ID                                       : 8
Format                                   : PGS
Muxing mode                              : zlib
Codec ID                                 : S_HDMV/PGS
Codec ID/Info                            : Picture based subtitle format used on BDs/HD-DVDs
Duration                                 : 1 h 29 min
Bit rate                                 : 19.9 kb/s
Count of elements                        : 1226
Stream size                              : 12.7 MiB (0%)
Title                                    : Finnish-PGS
Language                                 : Finnish
Default                                  : No
Forced                                   : No

Text #5
ID                                       : 9
Format                                   : PGS
Muxing mode                              : zlib
Codec ID                                 : S_HDMV/PGS
Codec ID/Info                            : Picture based subtitle format used on BDs/HD-DVDs
Duration                                 : 1 h 29 min
Bit rate                                 : 19.1 kb/s
Count of elements                        : 1224
Stream size                              : 12.2 MiB (0%)
Title                                    : Norwegian-PGS
Language                                 : Norwegian
Default                                  : No
Forced                                   : No

Text #6
ID                                       : 10
Format                                   : PGS
Muxing mode                              : zlib
Codec ID                                 : S_HDMV/PGS
Codec ID/Info                            : Picture based subtitle format used on BDs/HD-DVDs
Duration                                 : 1 h 29 min
Bit rate                                 : 19.8 kb/s
Count of elements                        : 1222
Stream size                              : 12.6 MiB (0%)
Title                                    : Swedish-PGS
Language                                 : Swedish
Default                                  : No
Forced                                   : No

Text #7
ID                                       : 11
Format                                   : PGS
Muxing mode                              : zlib
Codec ID                                 : S_HDMV/PGS
Codec ID/Info                            : Picture based subtitle format used on BDs/HD-DVDs
Duration                                 : 1 h 29 min
Bit rate                                 : 21.1 kb/s
Count of elements                        : 1258
Stream size                              : 13.5 MiB (0%)
Title                                    : Russian-PGS
Language                                 : Russian
Default                                  : No
Forced                                   : No

Menu
00:00:00.000                             : en:Chapter 1
00:05:39.839                             : en:Chapter 2
00:11:28.938                             : en:Chapter 3
00:16:55.139                             : en:Chapter 4
00:22:28.430                             : en:Chapter 5
00:26:59.034                             : en:Chapter 6
00:32:54.639                             : en:Chapter 7
00:37:28.871                             : en:Chapter 8
00:40:58.831                             : en:Chapter 9
00:45:29.309                             : en:Chapter 10
00:49:24.086                             : en:Chapter 11
00:53:43.053                             : en:Chapter 12
00:57:04.921                             : en:Chapter 13
01:01:36.943                             : en:Chapter 14
01:05:54.700                             : en:Chapter 15
01:07:55.237                             : en:Chapter 16
01:11:19.149                             : en:Chapter 17
01:15:32.653                             : en:Chapter 18
01:21:12.826                             : en:Chapter 19
01:28:24.757                             : en:Chapter 20







1 个附件 售价 大小 下载 时间

Minions.2015.2160p.BluRay.x264.8bit.SDR.DTS-HD.MA.TrueHD.7.1.Atmos-SWTYBLZ[btbtt.me].torrent 0 金币 54.98K 448 次 4天前

#1楼
发帖时间:2017-12-07 19:38:04   |   回复数:4
blue23
隐世仙人♂
感谢楼主分享
4天前 #2楼
liyouchai
超凡入圣№
谢谢楼主分享资源
4天前 #3楼
jokingcheung
一代宗师
谢谢分享
3天前 #4楼
911degrees
超凡入圣№
非常感谢,谢谢分享
3天前 #5楼
游客组