_KOOK
武林高手

[2011] [日本] [爱情] [BD-1080P] [BT下载]恋之罪.Guilty of Romance.2011.JP.EXTENDED.BluRay.1920x1040p.x264.DTS-KOOK.[中英

-->

恋之罪.Guilty of Romance.2011.JP.EXTENDED.BluRay.1920x1040p.x264.DTS-KOOK.[中英字幕] 9.83GB




英文字幕是硬字幕,不喜不下

中文字幕在下,完美错开

只看英文关掉字幕就好




※※※※※※※ 影片信息 ※※※※※※※


◎片   名 恋の罪

◎译   名 恋之罪/Guilty of Romance

◎年   代 2011

◎国   家 日本

◎类   别 剧情 / 惊悚 / 情色 / 犯罪

◎语   言 日语

◎上映日 期 2011-11-12

◎字   幕 中英双字/简体字幕/繁体字幕/英文字幕

◎IMDB 评分  6.8/10 from 3339 users

◎豆瓣 评分  6.6/10 from 9108 users

◎视频尺 寸  1920x1040p

◎片   长 2.24.57

◎导   演 园子温

◎编     剧  园子温

◎主   演 水野美纪 / 富坚真 / 神乐坂惠 / 小林龙树 / 深水元基




 

◎简  介




  在一处偏僻的住所里发生了骇人听闻的猎奇杀人事件,一具截成两段后又被砍掉手脚的女尸静静的散发出腐臭的气味,负责此案的女刑警吉田和子(水野美纪 饰)随即展开了调查,在此过程中,菊池泉(神乐坂惠 饰)和尾泽美津子(富樫真 饰)这两个神秘女人的身影渐渐浮出水面。 

  作为著名小说家的妻子,菊池泉过着平静而又枯燥的生活,除了每天定时等先生回家外几乎无所事事。而美津子则是一所著名大学的副教授,在教育界和学术界享有着极高的声誉。这两个风马牛不相及的女人之间有着怎样的联系?和子也有着自己的秘密,表面上坚贞贤惠的她其实有着十分混乱的私生活,面对欲望逐渐扩大的欲望的黑洞,她要怎样才能够守住自己的底线?



   恋之罪》是由日活映画制作的144分钟的恐怖情色影片。该片由园子温导演编剧,水野美纪、冨坚真、神乐坂惠等主演,于2011年12月2日在日本上映。

该片以1990年代在东京涉谷区圆山町情人旅馆街发生的杀人事件作为故事的主轴,描述了追逐神秘猎奇杀人事件的女刑事吉田和子、大学精英助教尾泽美津子和卖身的家庭主妇菊池泉三名女性的故事



   该片标题来自萨德侯爵的同名小说。

   影片中被拼凑在一起的女性尸体,灵感来自于江户川乱步。

为了演好警察的角色,水野美纪不仅控制饮食和体型,还向现实生活中的警察取经,包括面对一具插着匕首的尸体时该从哪方面入手调查,调查步骤和注意事项全部都要了解。

  美津子是园子温当年恋人的名字。

  富坚真自言初读剧本时就与美津子这个角色有着颇多共鸣,拍摄过程中更时常感觉美津子就在自己的体内。试映会上,富坚真也会突然转变成美津子的神情和声调,她承认很长一段时间无法从美津子的角色中出来。

园子温自嘲在以女性视角拍电影时,连性冲动都没有了,有种变成和尚的感觉。

菊池泉的原型来自于园子温的母亲,他的家庭是典型的“犬神家族式”的传统日本家庭,男人绝对不能进厨房,妻子不可以踩丈夫的影子。

   影片中美津子朗诵的是田村隆一的诗歌《归途》,田村也是园子温颇为喜欢的诗人,他在采访中时常会引用偶像的诗句。

   三个女主角对片场的园子温有着截然不同的评价,水野认为导演温柔甚至有些害羞,如诗人般纤细且容易受伤;而神乐坂和富樫眼中的导演则如凶神恶煞一般,按照富坚的说法,“每天都沐浴着园子温的骂声,一起学习,一切成长。”

   关于东电OL杀人事件,尼泊尔籍的嫌疑人在服刑当中。2011年7月的DNA结果又将案件引向新的方向。辩护团以将该结果提交东京高等法院,或许该案既定的判决不久后将被推翻。

园子温于2011年9月在浪漫之都巴黎向神乐坂惠求婚,二人由此缔结婚约


2012-03-19 第6届亚洲电影大奖最佳导演 园子温 提名 [8] 

2012-02-06 第33届横滨电影节 最佳女配角 神乐坂惠 获奖 [9] 

第33届横滨电影节最佳导演 园子温

2012-02-04 第85届日本《电影旬报》电影大奖最佳日本导演 园子温 [10] 

2011-11-29 第36届 报知电影奖 最佳导演 园子温 提名 [11] 

2012-05-26 第21届日本电影专业大奖特别奖 千叶善纪 获奖 [12] 

第21届日本电影专业大奖 年度十佳影片 《恋之罪》 第4位

2012-02-14 第54届日本蓝丝带电影大赏 最佳影片 《恋之罪》 提名 [13] 

第54届日本蓝丝带电影大赏最佳导演 园子温




※※※※※※※ 参数信息 ※※※※※※※


General

Unique ID                      : 191166187779269172184029735804102361147 (0x8FD144BF06FAFCB2AF67C5313101C03B)



Format                         : Matroska

Format version                 : Version 4 / Version 2

File size                      : 9.84 GiB

Duration                       : 2 h 24 min

Overall bit rate               : 9 715 kb/s

Encoded date                   : UTC 2017-12-13 14:30:32

Writing application            : mkvmerge v9.4.2 ('So High') 64bit

Writing library                : libebml v1.3.4 + libmatroska v1.4.5

Attachments                    : 正式海报 日本.jpg


Video

ID                             : 1

Format                         : AVC

Format/Info                    : Advanced Video Codec

Format profile                 : [email protected]

Format settings, CABAC         : Yes

Format settings, ReFrames      : 4 frames

Codec ID                       : V_MPEG4/ISO/AVC

Duration                       : 2 h 24 min

Bit rate                       : 8 204 kb/s

Width                          : 1 920 pixels

Height                         : 1 040 pixels

Display aspect ratio           : 1.85:1

Frame rate mode                : Constant

Frame rate                     : 23.976 (23976/1000) FPS

Color space                    : YUV

Chroma subsampling             : 4:2:0

Bit depth                      : 8 bits

Scan type                      : Progressive

Bits/(Pixel*Frame)             : 0.171

Stream size                    : 8.31 GiB (84%)

Title                          : kook

Writing library                : x264 core 148 r2705 3f5ed56

Encoding settings              : cabac=1 / ref=4 / deblock=1:0:0 / analyse=0x3:0x133 / me=umh / subme=7 / psy=1 / psy_rd=1.00:0.00 / mixed_ref=1 / me_range=16 / chroma_me=1 / trellis=1 / 8x8dct=1 / cqm=0 / deadzone=21,11 / fast_pskip=0 / chroma_qp_offset=-2 / threads=12 / lookahead_threads=2 / sliced_threads=0 / nr=0 / decimate=1 / interlaced=0 / bluray_compat=0 / constrained_intra=0 / bframes=3 / b_pyramid=2 / b_adapt=2 / b_bias=0 / direct=3 / weightb=1 / open_gop=0 / weightp=2 / keyint=250 / keyint_min=23 / scenecut=40 / intra_refresh=0 / rc_lookahead=50 / rc=2pass / mbtree=1 / bitrate=8204 / ratetol=1.0 / qcomp=0.60 / qpmin=0 / qpmax=69 / qpstep=4 / cplxblur=20.0 / qblur=0.5 / ip_ratio=1.40 / aq=1:1.00

Language                       : English

Default                        : Yes

Forced                         : No


Audio

ID                             : 2

Format                         : DTS

Format/Info                    : Digital Theater Systems

Mode                           : 16

Format settings, Endianness    : Big

Codec ID                       : A_DTS

Duration                       : 2 h 24 min

Bit rate mode                  : Constant

Bit rate                       : 1 509 kb/s

Channel(s)                     : 2 channels

Channel positions              : Front: L R

Sampling rate                  : 48.0 kHz

Frame rate                     : 93.750 FPS (512 spf)

Bit depth                      : 24 bits

Compression mode               : Lossy

Stream size                    : 1.53 GiB (16%)

Language                       : Japanese

Default                        : Yes

Forced                         : No


Text #1

ID                             : 3

Format                         : ASS

Codec ID                       : S_TEXT/ASS

Codec ID/Info                  : Advanced Sub Station Alpha

Duration                       : 2 h 24 min

Bit rate                       : 82 b/s

Count of elements              : 1660

Compression mode               : Lossless

Stream size                    : 87.3 KiB (0%)

Title                          : 简体字幕

Language                       : Chinese

Default                        : Yes

Forced                         : No


Text #2

ID                             : 4

Format                         : ASS

Codec ID                       : S_TEXT/ASS

Codec ID/Info                  : Advanced Sub Station Alpha

Duration                       : 2 h 24 min

Bit rate                       : 82 b/s

Count of elements              : 1660

Compression mode               : Lossless

Stream size                    : 87.3 KiB (0%)

Title                          : 繁体字幕

Language                       : Chinese

Default                        : No

Forced                         : No






1 个附件 售价 大小 下载 时间

恋之罪.Guilty of Romance.2011.JP.EXTENDED.BluRay.1920x1040p.x264.DTS-KOOK.[中英字幕].torrent 0 金币 104.18K 7309 次 2017-12-16

#1楼
发帖时间:2017-12-16 06:31:29   |   回复数:8
911degrees
隐世仙人♂
非常感谢,谢谢分享
2017-12-16 #2楼
yangbo83222179
一代宗师
谢谢楼主分享,支持一下
2017-12-16 #3楼
blue23
隐世仙人♂
感谢楼主分享
2017-12-16 #4楼
kola13
一派掌门
感谢分享
2017-12-16 #5楼
tanchoohoon
武林盟主
感谢楼主的无私分享
2017-12-16 #6楼
s3364500
一代宗师
感谢分享~~~~
2017-12-16 #7楼
liyouchai
隐世仙人♂
谢谢楼主分享资源
2017-12-17 #8楼
jokingcheung
一代宗师
谢谢分享
2017-12-20 #9楼
游客组