aoloffline
版主

[2011] [欧美] [剧情] [BD-4K] [BT下载]勇士 2011.2160p.BluRay.x265.10bit.SDR.DTS-SWTYBLZ 41GB

-->

Warrior.2011.2160p.BluRay.x265.10bit.SDR.DTS-HD.MA.TrueHD.7.1.Atmos-SWTYBLZ

◎译  名 勇士/勇者无敌(台)/钢铁斗士(港)/武士/拳击勇士

◎片  名 Warrior

◎年  代 2011

◎产  地 美国

◎类  别 剧情/运动/家庭

◎语  言 英语

◎上映日期 2011-09-09(美国)

◎IMDb评分  8.2/10 from 369,821 users

◎IMDb链接  http://www.imdb.com/title/tt1291584/

◎豆瓣评分 8.9/10 from 86,450 users

◎豆瓣链接 https://movie.douban.com/subject/3217169/

◎BT之家整理 http://www.btbtt.co

◎片  长 140分钟

◎导  演 加文·欧康诺 Gavin O'Connor

◎主  演 汤姆·哈迪 Tom Hardy

      乔尔·埃哲顿 Joel Edgerton

      尼克·诺特 Nick Nolte

      詹妮弗·莫里森 Jennifer Morrison

      弗兰克·格里罗 Frank Grillo

      凯文·杜恩 Kevin Dunn


◎简  介


  这是一个破碎的家庭,酗酒的教练父亲帕迪(尼克·诺特 Nick Nolte 饰)家暴妻子,次子汤米(汤姆·哈迪 Tom Hardy 饰)与不堪忍受的母亲远赴他乡;长子布兰登(乔尔·埃哲顿 Joel Edgerton 饰)为了爱情选择留下,并认为从此可以得到父亲的器重与栽培,然而最后父子还是分道扬镳。时隔多年后,汤米带着母亲痛苦死去的悲伤记忆,以及在伊战中的惨痛经历找到父亲,要求后者再度担任自己的教练,以参加MMA的重奖大赛;几乎与此同时,昔日的职业格斗选手、如今的中学物理教师布兰登为金钱所困扰,他不能忍受自己无法为妻女提供庇护,决定重返赛场。在MMA的赛场上,这对分离多年的兄弟将再度聚首,用血与汗的交融,化释彼此的心结……


◎获奖情况


  第84届奥斯卡金像奖  (2012)

  最佳男配角(提名) 尼克·诺特


  第21届MTV电影奖  (2012)

  MTV电影奖 最佳打斗(提名) 汤姆·哈迪 / 乔尔·埃哲顿


  第17届美国评论家选择电影奖  (2012)

  最佳男配角(提名) 尼克·诺特


  第16届圣地亚哥影评人协会奖  (2011)

  最佳男配角 尼克·诺特


  第24届芝加哥影评人协会奖  (2011)

  最佳男配角(提名) 尼克·诺特


  第14届美国青少年选择奖  (2012)

  最佳动作片男演员(提名) 汤姆·哈迪


  第2届豆瓣电影鑫像奖  (2012)

  鑫豆单元 最佳影片(外语)(提名)

  鑫豆单元 最佳男演员(外语)(提名) 汤姆·哈迪




Video
ID                                       : 1
Format                                   : HEVC
Format/Info                              : High Efficiency Video Coding
Format profile                           : Main [email protected]@High
Codec ID                                 : V_MPEGH/ISO/HEVC
Duration                                 : 2 h 19 min
Bit rate                                 : 33.5 Mb/s
Width                                    : 3 840 pixels
Height                                   : 1 600 pixels
Display aspect ratio                     : 2.40:1
Frame rate mode                          : Constant
Frame rate                               : 23.976 (24000/1001) FPS
Color space                              : YUV
Chroma subsampling                       : 4:2:0
Bit depth                                : 10 bits
Bits/(Pixel*Frame)                       : 0.227
Stream size                              : 32.7 GiB (79%)
Title                                    : Warrior.2011.2160p.BluRay.x265.10bit.SDR.DTS-HD.MA.TrueHD.7.1.Atmos-SWTYBLZ
Writing library                          : x265 2.5b4a5bcfe29c7:[Windows][GCC 4.9.3][64 bit] 10bit
Encoding settings                        : cpuid=1173503 / frame-threads=16 / numa-pools=24,24,24,24 / wpp / no-pmode / no-pme / no-psnr / no-ssim / log-level=2 / input-csp=1 / input-res=3840x1600 / interlace=0 / total-frames=0 / level-idc=51 / high-tier=1 / uhd-bd=0 / ref=3 / no-allow-non-conformance / repeat-headers / annexb / aud / hrd / info / hash=0 / no-temporal-layers / no-open-gop / min-keyint=1 / keyint=24 / bframes=4 / b-adapt=2 / b-pyramid / bframe-bias=0 / rc-lookahead=25 / lookahead-slices=4 / scenecut=40 / no-intra-refresh / ctu=64 / min-cu-size=8 / no-rect / no-amp / max-tu-size=32 / tu-inter-depth=1 / tu-intra-depth=1 / limit-tu=0 / rdoq-level=0 / dynamic-rd=0.00 / no-ssim-rd / signhide / no-tskip / nr-intra=0 / nr-inter=0 / no-constrained-intra / strong-intra-smoothing / max-merge=2 / limit-refs=3 / no-limit-modes / me=1 / subme=2 / merange=57 / temporal-mvp / weightp / no-weightb / no-analyze-src-pics / deblock=0:0 / no-sao / no-sao-non-deblock / rd=3 / no-early-skip / rskip / no-fast-intra / no-tskip-fast / no-cu-lossless / no-b-intra / rdpenalty=0 / psy-rd=2.00 / psy-rdoq=0.00 / no-rd-refine / analysis-reuse-mode=0 / no-lossless / cbqpoffs=0 / crqpoffs=0 / rc=crf / crf=20.0 / qcomp=0.60 / qpstep=4 / stats-write=0 / stats-read=0 / vbv-maxrate=160000 / vbv-bufsize=160000 / vbv-init=0.9 / crf-max=0.0 / crf-min=0.0 / ipratio=1.40 / pbratio=1.30 / aq-mode=1 / aq-strength=1.00 / cutree / zone-count=0 / no-strict-cbr / qg-size=32 / no-rc-grain / qpmax=69 / qpmin=0 / no-const-vbv / sar=1 / overscan=0 / videoformat=5 / range=0 / colorprim=2 / transfer=2 / colormatrix=2 / chromaloc=0 / display-window=0 / max-cll=0,0 / min-luma=0 / max-luma=1023 / log2-max-poc-lsb=8 / vui-timing-info / vui-hrd-info / slices=1 / opt-qp-pps / opt-ref-list-length-pps / no-multi-pass-opt-rps / scenecut-bias=0.05 / no-opt-cu-delta-qp / no-aq-motion / no-hdr / no-hdr-opt / no-dhdr10-opt / analysis-reuse-level=5 / scale-factor=0 / refine-intra=0 / refine-inter=0 / refine-mv=0 / no-limit-sao / ctu-info=0
Default                                  : Yes
Forced                                   : No

Audio #1
ID                                       : 2
Format                                   : TrueHD
Format profile                           : TrueHD+Atmos / TrueHD
Codec ID                                 : A_TRUEHD
Duration                                 : 2 h 19 min
Bit rate mode                            : Variable
Bit rate                                 : 4 335 kb/s
Maximum bit rate                         : 8 205 kb/s
Channel(s)                               : Object Based / 8 channels
Channel positions                        : Object Based / Front: L C R, Side: L R, Back: L R, LFE
Sampling rate                            :  / 48.0 kHz
Frame rate                               : 1 200.000 FPS (40 SPF)
Compression mode                         : Lossless
Delay relative to video                  : 32 ms
Stream size                              : 4.24 GiB (10%)
Title                                    : Warrior.2011.2160p.BluRay.x265.10bit.SDR.DTS-HD.MA.TrueHD.7.1.Atmos-SWTYBLZ
Language                                 : English
Default                                  : Yes
Forced                                   : No

Audio #2
ID                                       : 3
Format                                   : DTS
Format/Info                              : Digital Theater Systems
Format profile                           : MA / Core
Codec ID                                 : A_DTS
Duration                                 : 2 h 19 min
Bit rate mode                            : Variable / Constant
Bit rate                                 : 3 840 kb/s / 1 509 kb/s
Channel(s)                               : 8 channels / 6 channels
Channel positions                        : Front: L C R, Side: L R, Back: L R, LFE / Front: L C R, Side: L R, LFE
Sampling rate                            : 48.0 kHz
Frame rate                               : 93.750 FPS (512 SPF)
Bit depth                                : 24 bits
Compression mode                         : Lossless / Lossy
Stream size                              : 3.72 GiB (9%)
Title                                    : Warrior.2011.2160p.BluRay.x265.10bit.SDR.DTS-HD.MA.TrueHD.7.1.Atmos-SWTYBLZ
Language                                 : English
Default                                  : No
Forced                                   : No

Audio #3
ID                                       : 4
Format                                   : AC-3
Format/Info                              : Audio Coding 3
Codec ID                                 : A_AC3
Duration                                 : 2 h 19 min
Bit rate mode                            : Constant
Bit rate                                 : 640 kb/s
Channel(s)                               : 6 channels
Channel positions                        : Front: L C R, Side: L R, LFE
Sampling rate                            : 48.0 kHz
Frame rate                               : 31.250 FPS (1536 SPF)
Bit depth                                : 16 bits
Compression mode                         : Lossy
Delay relative to video                  : 31 ms
Stream size                              : 640 MiB (2%)
Title                                    : Warrior.2011.2160p.BluRay.x265.10bit.SDR.DTS-HD.MA.TrueHD.7.1.Atmos-SWTYBLZ
Language                                 : English
Service kind                             : Complete Main
Default                                  : No
Forced                                   : No

Text #1
ID                                       : 5
Format                                   : UTF-8
Codec ID                                 : S_TEXT/UTF8
Codec ID/Info                            : UTF-8 Plain Text
Duration                                 : 2 h 8 min
Bit rate                                 : 72 b/s
Count of elements                        : 1859
Stream size                              : 68.4 KiB (0%)
Title                                    : English-SRT
Language                                 : English
Default                                  : Yes
Forced                                   : No

Text #2
ID                                       : 6
Format                                   : PGS
Muxing mode                              : zlib
Codec ID                                 : S_HDMV/PGS
Codec ID/Info                            : Picture based subtitle format used on BDs/HD-DVDs
Duration                                 : 2 h 8 min
Bit rate                                 : 46.9 kb/s
Count of elements                        : 3724
Stream size                              : 42.9 MiB (0%)
Title                                    : English-PGS
Language                                 : English
Default                                  : No
Forced                                   : No

Text #3
ID                                       : 7
Format                                   : PGS
Muxing mode                              : zlib
Codec ID                                 : S_HDMV/PGS
Codec ID/Info                            : Picture based subtitle format used on BDs/HD-DVDs
Duration                                 : 2 h 12 min
Bit rate                                 : 48.6 kb/s
Count of elements                        : 3998
Stream size                              : 46.1 MiB (0%)
Title                                    : English-SDH-PGS
Language                                 : English
Default                                  : No
Forced                                   : No

Text #4
ID                                       : 8
Format                                   : PGS
Muxing mode                              : zlib
Codec ID                                 : S_HDMV/PGS
Codec ID/Info                            : Picture based subtitle format used on BDs/HD-DVDs
Duration                                 : 2 h 8 min
Bit rate                                 : 42.9 kb/s
Count of elements                        : 3760
Stream size                              : 39.3 MiB (0%)
Title                                    : Spanish-PGS
Language                                 : Spanish
Default                                  : No
Forced                                   : No

Menu
00:00:00.000                             : en:Chapter 1
00:10:32.048                             : en:Chapter 2
00:16:45.921                             : en:Chapter 3
00:26:33.758                             : en:Chapter 4
00:39:08.179                             : en:Chapter 5
00:45:48.829                             : en:Chapter 6
00:51:28.126                             : en:Chapter 7
00:58:27.003                             : en:Chapter 8
01:06:01.666                             : en:Chapter 9
01:14:26.462                             : en:Chapter 10
01:22:32.113                             : en:Chapter 11
01:30:34.846                             : en:Chapter 12
01:40:45.247                             : en:Chapter 13
01:52:55.185                             : en:Chapter 14
02:00:20.296                             : en:Chapter 15
02:06:49.602                             : en:Chapter 16







1 个附件 售价 大小 下载 时间

Warrior.2011.2160p.BluRay.x265.10bit.SDR.DTS-HD.MA.TrueHD.7.1.Atmos-SWTYBLZ[btbtt.me].torrent 0 金币 104.87K 1540 次 2017-12-21

#1楼
发帖时间:2017-12-21 11:57:14   |   回复数:6
911degrees
隐世仙人♂
非常感谢,谢谢分享
2017-12-21 #2楼
liyouchai
隐世仙人♂
谢谢楼主分享资源
2017-12-21 #3楼
blue23
隐世仙人♂
感谢楼主分享
2017-12-22 #4楼
jokingcheung
一代宗师
谢谢分享
2017-12-31 #5楼
Charon
武林高手
感谢分享
2018-1-9 #6楼
wallwol
武林高手
感谢分享
2018-1-9 #7楼
游客组