aoloffline
版主

[2011] [欧美] [动画] [BD-4K] [BT下载]愤怒的小鸟 2016.2160p.BluRay.x264.8bit.SDR.DTS-SWTYBLZ 19GB

-->

自带中字

Angry.Birds.2016.2160p.BluRay.x264.8bit.SDR.DTS-HD.MA.TrueHD.7.1.Atmos-SWTYBLZ

◎译  名 愤怒的小鸟/愤怒鸟大电影(港)

◎片  名 Angry Birds

◎年  代 2016

◎产  地 芬兰/美国

◎类  别 喜剧/动作/动画

◎语  言 英语

◎上映日期 2016-05-13(芬兰)/2016-05-20(中国大陆)/2016-05-20(美国)

◎豆瓣评分 7.0/10 from 69,325 users

◎豆瓣链接 https://movie.douban.com/subject/6873736/

◎BT之家整理 http://www.btbtt.me/

◎片  长 97分钟

◎导  演 费格尔·雷利 Fergal Reilly / 克雷·卡提斯 Clay Kaytis

◎主  演 杰森·苏戴奇斯 Jason Sudeikis

      乔什·盖德 Josh Gad

      丹尼·麦克布耐德 Danny McBride

      玛娅·鲁道夫 Maya Rudolph

      西恩·潘 Sean Penn

      凯特·麦克金农 Kate McKinnon

      彼特·丁拉基 Peter Dinklage

      比尔·哈德尔 Bill Hader

      托尼·海尔 Tony Hale

      丹尼尔·布鲁克斯 Danielle Brooks

      吉莉恩·贝尔 Jillian Bell

      科甘·迈克尔·基 Keegan Michael Key

      伊克·巴里霍尔兹 Ike Barinholtz

      吉奥弗瑞·阿伦德 Geoffrey Arend

      麦克斯·查尔斯 Max Charles

      布莱克·谢尔顿 Blake Shelton

      泰塔斯·伯吉斯 Tituss Burgess

      汉尼拔·布勒斯 Hannibal Buress

      克里斯黛拉·阿朗索 Cristela Alonzo

      安东尼·帕迪利亚 Anthony Padilla

      比利·艾希纳 Billy Eichner


◎简  介


  在一座与世隔绝的小岛上,生活着种类繁多且快乐无忧的小鸟。不过他们中间总有异类存在,比如离群索居的胖红(杰森·苏戴奇斯 Jason Sudeikis 配音),孤儿出身且有些另类的怪异容貌让他成为其他鸟儿嘲笑和奚落的对象。久而久之,胖红也养成了促狭易怒的性格。在被法官叛出参 加情绪管理课程期间,他结识了速度极快的飞镖黄(乔什·加德 Josh Gad 配音)和一不小心便会引起爆炸的炸弹黑(丹尼·麦克布耐德 Danny McBride 配音)。三个怪胎由此闹出不少的笑话。未过多久,神秘的绿猪莱纳德(比尔·哈德尔 Bill Hader 配音)带着手下来到小岛,他们展现出友善的面孔,可又仿佛在暗中策划这什么。

  岛上只有胖红对绿猪的到来充满戒备,而他的担忧也很快得到了验证……



Video
ID                                       : 1
Format                                   : AVC
Format/Info                              : Advanced Video Codec
Format profile                           : [email protected]
Format settings                          : CABAC / 5 Ref Frames
Format settings, CABAC                   : Yes
Format settings, RefFrames               : 5 frames
Codec ID                                 : V_MPEG4/ISO/AVC
Duration                                 : 1 h 37 min
Bit rate                                 : 18.8 Mb/s
Width                                    : 3 840 pixels
Height                                   : 2 076 pixels
Display aspect ratio                     : 1.85:1
Frame rate mode                          : Constant
Frame rate                               : 23.976 (24000/1001) FPS
Color space                              : YUV
Chroma subsampling                       : 4:2:0
Bit depth                                : 8 bits
Scan type                                : Progressive
Bits/(Pixel*Frame)                       : 0.098
Stream size                              : 12.7 GiB (65%)
Title                                    : Angry.Birds.2016.2160p.BluRay.x264.8bit.SDR.DTS-HD.MA.TrueHD.7.1.Atmos-SWTYBLZ
Writing library                          : x264 core 148 r2748 97eaef2
Encoding settings                        : cabac=1 / ref=5 / deblock=1:1:1 / analyse=0x3:0x113 / me=umh / subme=10 / psy=1 / psy_rd=0.40:0.00 / mixed_ref=1 / me_range=48 / chroma_me=1 / trellis=2 / 8x8dct=1 / cqm=0 / deadzone=21,11 / fast_pskip=1 / chroma_qp_offset=-2 / threads=65 / lookahead_threads=7 / sliced_threads=0 / nr=0 / decimate=0 / interlaced=0 / bluray_compat=0 / constrained_intra=0 / bframes=5 / b_pyramid=2 / b_adapt=2 / b_bias=0 / direct=3 / weightb=1 / open_gop=0 / weightp=2 / keyint=250 / keyint_min=23 / scenecut=40 / intra_refresh=0 / rc_lookahead=50 / rc=crf / mbtree=1 / crf=18.0 / qcomp=0.60 / qpmin=0 / qpmax=69 / qpstep=4 / ip_ratio=1.40 / aq=1:0.60
Default                                  : Yes
Forced                                   : No

Audio #1
ID                                       : 2
Format                                   : TrueHD
Format profile                           : TrueHD+Atmos / TrueHD
Codec ID                                 : A_TRUEHD
Duration                                 : 1 h 37 min
Bit rate mode                            : Variable
Bit rate                                 : 4 747 kb/s
Maximum bit rate                         : 6 972 kb/s
Channel(s)                               : Object Based / 8 channels
Channel positions                        : Object Based / Front: L C R, Side: L R, Back: L R, LFE
Sampling rate                            :  / 48.0 kHz
Frame rate                               : 1 200.000 FPS (40 SPF)
Compression mode                         : Lossless
Stream size                              : 3.22 GiB (17%)
Title                                    : Angry.Birds.2016.2160p.BluRay.x264.8bit.SDR.DTS-HD.MA.TrueHD.7.1.Atmos-SWTYBLZ
Language                                 : English
Default                                  : Yes
Forced                                   : No

Audio #2
ID                                       : 3
Format                                   : DTS
Format/Info                              : Digital Theater Systems
Format profile                           : MA / Core
Codec ID                                 : A_DTS
Duration                                 : 1 h 37 min
Bit rate mode                            : Variable / Constant
Bit rate                                 : 4 192 kb/s / 1 509 kb/s
Channel(s)                               : 8 channels / 6 channels
Channel positions                        : Front: L C R, Side: L R, Back: L R, LFE / Front: L C R, Side: L R, LFE
Sampling rate                            : 48.0 kHz
Frame rate                               : 93.750 FPS (512 SPF)
Bit depth                                : 24 bits
Compression mode                         : Lossless / Lossy
Stream size                              : 2.85 GiB (15%)
Title                                    : Angry.Birds.2016.2160p.BluRay.x264.8bit.SDR.DTS-HD.MA.TrueHD.7.1.Atmos-SWTYBLZ
Language                                 : English
Default                                  : No
Forced                                   : No

Audio #3
ID                                       : 4
Format                                   : AC-3
Format/Info                              : Audio Coding 3
Codec ID                                 : A_AC3
Duration                                 : 1 h 37 min
Bit rate mode                            : Constant
Bit rate                                 : 640 kb/s
Channel(s)                               : 6 channels
Channel positions                        : Front: L C R, Side: L R, LFE
Sampling rate                            : 48.0 kHz
Frame rate                               : 31.250 FPS (1536 SPF)
Bit depth                                : 16 bits
Compression mode                         : Lossy
Stream size                              : 445 MiB (2%)
Title                                    : Angry.Birds.2016.2160p.BluRay.x264.8bit.SDR.DTS-HD.MA.TrueHD.7.1.Atmos-SWTYBLZ
Language                                 : English
Service kind                             : Complete Main
Default                                  : No
Forced                                   : No

Text #1
ID                                       : 5
Format                                   : UTF-8
Codec ID                                 : S_TEXT/UTF8
Codec ID/Info                            : UTF-8 Plain Text
Duration                                 : 1 h 32 min
Bit rate                                 : 72 b/s
Count of elements                        : 1820
Stream size                              : 49.1 KiB (0%)
Title                                    : English-SRT
Language                                 : English
Default                                  : Yes
Forced                                   : No

Text #2
ID                                       : 6
Format                                   : PGS
Muxing mode                              : zlib
Codec ID                                 : S_HDMV/PGS
Codec ID/Info                            : Picture based subtitle format used on BDs/HD-DVDs
Duration                                 : 1 h 32 min
Bit rate                                 : 61.7 kb/s
Count of elements                        : 4561
Stream size                              : 40.8 MiB (0%)
Title                                    : English-PGS
Language                                 : English
Default                                  : No
Forced                                   : No

Text #3
ID                                       : 7
Format                                   : PGS
Muxing mode                              : zlib
Codec ID                                 : S_HDMV/PGS
Codec ID/Info                            : Picture based subtitle format used on BDs/HD-DVDs
Duration                                 : 1 h 29 min
Bit rate                                 : 41.7 kb/s
Count of elements                        : 3055
Stream size                              : 26.6 MiB (0%)
Title                                    : English-SDH-PGS
Language                                 : English
Default                                  : No
Forced                                   : No

Text #4
ID                                       : 8
Format                                   : PGS
Muxing mode                              : zlib
Codec ID                                 : S_HDMV/PGS
Codec ID/Info                            : Picture based subtitle format used on BDs/HD-DVDs
Duration                                 : 1 h 32 min
Bit rate                                 : 61.8 kb/s
Count of elements                        : 4561
Stream size                              : 40.9 MiB (0%)
Title                                    : English-PGS
Language                                 : English
Default                                  : No
Forced                                   : No

Text #5
ID                                       : 9
Format                                   : PGS
Muxing mode                              : zlib
Codec ID                                 : S_HDMV/PGS
Codec ID/Info                            : Picture based subtitle format used on BDs/HD-DVDs
Duration                                 : 1 h 29 min
Bit rate                                 : 41.7 kb/s
Count of elements                        : 3052
Stream size                              : 26.6 MiB (0%)
Title                                    : English-SDH-PGS
Language                                 : English
Default                                  : No
Forced                                   : No

Text #6
ID                                       : 10
Format                                   : PGS
Muxing mode                              : zlib
Codec ID                                 : S_HDMV/PGS
Codec ID/Info                            : Picture based subtitle format used on BDs/HD-DVDs
Duration                                 : 1 h 35 min
Bit rate                                 : 33.5 kb/s
Count of elements                        : 2864
Stream size                              : 23.0 MiB (0%)
Title                                    : Chinese-PGS
Language                                 : Chinese
Default                                  : No
Forced                                   : No

Text #7
ID                                       : 11
Format                                   : PGS
Muxing mode                              : zlib
Codec ID                                 : S_HDMV/PGS
Codec ID/Info                            : Picture based subtitle format used on BDs/HD-DVDs
Duration                                 : 1 h 29 min
Bit rate                                 : 41.2 kb/s
Count of elements                        : 3235
Stream size                              : 26.3 MiB (0%)
Title                                    : Danish-PGS
Language                                 : Danish
Default                                  : No
Forced                                   : No

Text #8
ID                                       : 12
Format                                   : PGS
Muxing mode                              : zlib
Codec ID                                 : S_HDMV/PGS
Codec ID/Info                            : Picture based subtitle format used on BDs/HD-DVDs
Duration                                 : 1 h 29 min
Bit rate                                 : 43.0 kb/s
Count of elements                        : 3245
Stream size                              : 27.5 MiB (0%)
Title                                    : Estonian-PGS
Language                                 : Estonian
Default                                  : No
Forced                                   : No

Text #9
ID                                       : 13
Format                                   : PGS
Muxing mode                              : zlib
Codec ID                                 : S_HDMV/PGS
Codec ID/Info                            : Picture based subtitle format used on BDs/HD-DVDs
Duration                                 : 1 h 35 min
Bit rate                                 : 34.3 kb/s
Count of elements                        : 3008
Stream size                              : 23.5 MiB (0%)
Title                                    : Finnish-PGS
Language                                 : Finnish
Default                                  : No
Forced                                   : No

Text #10
ID                                       : 14
Format                                   : PGS
Muxing mode                              : zlib
Codec ID                                 : S_HDMV/PGS
Codec ID/Info                            : Picture based subtitle format used on BDs/HD-DVDs
Duration                                 : 1 h 35 min
Bit rate                                 : 29.2 kb/s
Count of elements                        : 2738
Stream size                              : 20.0 MiB (0%)
Title                                    : French-PGS
Language                                 : French
Default                                  : No
Forced                                   : No

Text #11
ID                                       : 15
Format                                   : PGS
Muxing mode                              : zlib
Codec ID                                 : S_HDMV/PGS
Codec ID/Info                            : Picture based subtitle format used on BDs/HD-DVDs
Duration                                 : 1 h 35 min
Bit rate                                 : 34.2 kb/s
Count of elements                        : 2812
Stream size                              : 23.5 MiB (0%)
Title                                    : Indonesian-PGS
Language                                 : Indonesian
Default                                  : No
Forced                                   : No

Text #12
ID                                       : 16
Format                                   : PGS
Muxing mode                              : zlib
Codec ID                                 : S_HDMV/PGS
Codec ID/Info                            : Picture based subtitle format used on BDs/HD-DVDs
Duration                                 : 1 h 30 min
Bit rate                                 : 23.6 kb/s
Count of elements                        : 2836
Stream size                              : 15.2 MiB (0%)
Title                                    : Korean-PGS
Language                                 : Korean
Default                                  : No
Forced                                   : No

Text #13
ID                                       : 17
Format                                   : PGS
Muxing mode                              : zlib
Codec ID                                 : S_HDMV/PGS
Codec ID/Info                            : Picture based subtitle format used on BDs/HD-DVDs
Duration                                 : 1 h 29 min
Bit rate                                 : 39.8 kb/s
Count of elements                        : 3161
Stream size                              : 25.4 MiB (0%)
Title                                    : Latvian-PGS
Language                                 : Latvian
Default                                  : No
Forced                                   : No

Text #14
ID                                       : 18
Format                                   : PGS
Muxing mode                              : zlib
Codec ID                                 : S_HDMV/PGS
Codec ID/Info                            : Picture based subtitle format used on BDs/HD-DVDs
Duration                                 : 1 h 29 min
Bit rate                                 : 41.1 kb/s
Count of elements                        : 3157
Stream size                              : 26.2 MiB (0%)
Title                                    : Lithuanian-PGS
Language                                 : Lithuanian
Default                                  : No
Forced                                   : No

Text #15
ID                                       : 19
Format                                   : PGS
Muxing mode                              : zlib
Codec ID                                 : S_HDMV/PGS
Codec ID/Info                            : Picture based subtitle format used on BDs/HD-DVDs
Duration                                 : 1 h 35 min
Bit rate                                 : 29.7 kb/s
Count of elements                        : 2618
Stream size                              : 20.3 MiB (0%)
Title                                    : Norwegian-PGS
Language                                 : Norwegian
Default                                  : No
Forced                                   : No

Text #16
ID                                       : 20
Format                                   : PGS
Muxing mode                              : zlib
Codec ID                                 : S_HDMV/PGS
Codec ID/Info                            : Picture based subtitle format used on BDs/HD-DVDs
Duration                                 : 1 h 35 min
Bit rate                                 : 35.3 kb/s
Count of elements                        : 2777
Stream size                              : 24.2 MiB (0%)
Title                                    : Portuguese-PGS
Language                                 : Portuguese
Default                                  : No
Forced                                   : No

Text #17
ID                                       : 21
Format                                   : PGS
Muxing mode                              : zlib
Codec ID                                 : S_HDMV/PGS
Codec ID/Info                            : Picture based subtitle format used on BDs/HD-DVDs
Duration                                 : 1 h 29 min
Bit rate                                 : 38.0 kb/s
Count of elements                        : 3159
Stream size                              : 24.2 MiB (0%)
Title                                    : Russian-PGS
Language                                 : Russian
Default                                  : No
Forced                                   : No

Text #18
ID                                       : 22
Format                                   : PGS
Muxing mode                              : zlib
Codec ID                                 : S_HDMV/PGS
Codec ID/Info                            : Picture based subtitle format used on BDs/HD-DVDs
Duration                                 : 1 h 36 min
Bit rate                                 : 36.6 kb/s
Count of elements                        : 2787
Stream size                              : 25.1 MiB (0%)
Title                                    : Spanish-PGS
Language                                 : Spanish
Default                                  : No
Forced                                   : No

Text #19
ID                                       : 23
Format                                   : PGS
Muxing mode                              : zlib
Codec ID                                 : S_HDMV/PGS
Codec ID/Info                            : Picture based subtitle format used on BDs/HD-DVDs
Duration                                 : 1 h 35 min
Bit rate                                 : 29.1 kb/s
Count of elements                        : 1948
Stream size                              : 19.9 MiB (0%)
Title                                    : Swedish-PGS
Language                                 : Swedish
Default                                  : No
Forced                                   : No

Text #20
ID                                       : 24
Format                                   : PGS
Muxing mode                              : zlib
Codec ID                                 : S_HDMV/PGS
Codec ID/Info                            : Picture based subtitle format used on BDs/HD-DVDs
Duration                                 : 1 h 35 min
Bit rate                                 : 27.3 kb/s
Count of elements                        : 2842
Stream size                              : 18.7 MiB (0%)
Title                                    : Thai-PGS
Language                                 : Thai
Default                                  : No
Forced                                   : No

Text #21
ID                                       : 25
Format                                   : PGS
Muxing mode                              : zlib
Codec ID                                 : S_HDMV/PGS
Codec ID/Info                            : Picture based subtitle format used on BDs/HD-DVDs
Duration                                 : 1 h 29 min
Bit rate                                 : 37.5 kb/s
Count of elements                        : 3159
Stream size                              : 23.9 MiB (0%)
Title                                    : Ukrainian-PGS
Language                                 : Ukrainian
Default                                  : No
Forced                                   : No

Text #22
ID                                       : 26
Format                                   : PGS
Muxing mode                              : zlib
Codec ID                                 : S_HDMV/PGS
Codec ID/Info                            : Picture based subtitle format used on BDs/HD-DVDs
Duration                                 : 1 h 28 min
Bit rate                                 : 45.3 kb/s
Count of elements                        : 2820
Stream size                              : 28.7 MiB (0%)
Title                                    : Vietnamese-PGS
Language                                 : Vietnamese
Default                                  : No
Forced                                   : No

Text #23
ID                                       : 27
Format                                   : PGS
Muxing mode                              : zlib
Codec ID                                 : S_HDMV/PGS
Codec ID/Info                            : Picture based subtitle format used on BDs/HD-DVDs
Duration                                 : 1 h 29 min
Bit rate                                 : 29.0 kb/s
Count of elements                        : 2828
Stream size                              : 18.5 MiB (0%)
Title                                    : Chinese-PGS
Language                                 : Chinese
Default                                  : No
Forced                                   : No

Text #24
ID                                       : 28
Format                                   : PGS
Muxing mode                              : zlib
Codec ID                                 : S_HDMV/PGS
Codec ID/Info                            : Picture based subtitle format used on BDs/HD-DVDs
Duration                                 : 1 h 36 min
Bit rate                                 : 33.0 kb/s
Count of elements                        : 3146
Stream size                              : 22.7 MiB (0%)
Title                                    : Chinese-PGS
Language                                 : Chinese
Default                                  : No
Forced                                   : No

Menu
00:00:00.000                             : en:Chapter 1
00:07:05.091                             : en:Chapter 2
00:13:38.108                             : en:Chapter 3
00:20:22.638                             : en:Chapter 4
00:25:38.620                             : en:Chapter 5
00:32:57.392                             : en:Chapter 6
00:38:34.812                             : en:Chapter 7
00:41:36.327                             : en:Chapter 8
00:47:12.955                             : en:Chapter 9
00:52:04.287                             : en:Chapter 10
00:56:07.697                             : en:Chapter 11
00:59:08.711                             : en:Chapter 12
01:03:43.319                             : en:Chapter 13
01:11:45.801                             : en:Chapter 14
01:18:55.522                             : en:Chapter 15
01:23:54.821                             : en:Chapter 16






1 个附件 售价 大小 下载 时间

Angry.Birds.2016.2160p.BluRay.x264.8bit.SDR.DTS-HD.MA.TrueHD.7.1.Atmos-SWTYBLZ[btbtt.me].torrent 0 金币 98.88K 1092 次 2017-12-21

#1楼
发帖时间:2017-12-21 11:58:48   |   回复数:4
911degrees
隐世仙人♂
非常感谢,谢谢分享
2017-12-21 #2楼
liyouchai
隐世仙人♂
谢谢楼主分享资源
2017-12-21 #3楼
blue23
隐世仙人♂
感谢楼主分享
2017-12-22 #4楼
jokingcheung
一代宗师
谢谢分享
2017-12-31 #5楼
游客组