aoloffline
版主

[2011] [欧美] [剧情] [BD-1080P] [BT下载]勇士 Warrior.2011.1080p.BluRay.x264.TrueHD.7.1.Atmos-SWTYBLZ 20GB

-->

Warrior.2011.1080p.BluRay.x264.TrueHD.7.1.Atmos-SWTYBLZ

◎译  名 勇士/勇者无敌(台)/钢铁斗士(港)/武士/拳击勇士

◎片  名 Warrior

◎年  代 2011

◎产  地 美国

◎类  别 剧情/运动/家庭

◎语  言 英语

◎上映日期 2011-09-09(美国)

◎IMDb评分  8.2/10 from 369,821 users

◎IMDb链接  http://www.imdb.com/title/tt1291584/

◎豆瓣评分 8.9/10 from 86,450 users

◎豆瓣链接 https://movie.douban.com/subject/3217169/

◎BT之家整理 http://www.btbtt.co

◎片  长 140分钟

◎导  演 加文·欧康诺 Gavin O'Connor

◎主  演 汤姆·哈迪 Tom Hardy

      乔尔·埃哲顿 Joel Edgerton

      尼克·诺特 Nick Nolte

      詹妮弗·莫里森 Jennifer Morrison

      弗兰克·格里罗 Frank Grillo

      凯文·杜恩 Kevin Dunn


◎简  介


  这是一个破碎的家庭,酗酒的教练父亲帕迪(尼克·诺特 Nick Nolte 饰)家暴妻子,次子汤米(汤姆·哈迪 Tom Hardy 饰)与不堪忍受的母亲远赴他乡;长子布兰登(乔尔·埃哲顿 Joel Edgerton 饰)为了爱情选择留下,并认为从此可以得到父亲的器重与栽培,然而最后父子还是分道扬镳。时隔多年后,汤米带着母亲痛苦死去的悲伤记忆,以及在伊战中的惨痛经历找到父亲,要求后者再度担任自己的教练,以参加MMA的重奖大赛;几乎与此同时,昔日的职业格斗选手、如今的中学物理教师布兰登为金钱所困扰,他不能忍受自己无法为妻女提供庇护,决定重返赛场。在MMA的赛场上,这对分离多年的兄弟将再度聚首,用血与汗的交融,化释彼此的心结……


◎获奖情况


  第84届奥斯卡金像奖  (2012)

  最佳男配角(提名) 尼克·诺特


  第21届MTV电影奖  (2012)

  MTV电影奖 最佳打斗(提名) 汤姆·哈迪 / 乔尔·埃哲顿


  第17届美国评论家选择电影奖  (2012)

  最佳男配角(提名) 尼克·诺特


  第16届圣地亚哥影评人协会奖  (2011)

  最佳男配角 尼克·诺特


  第24届芝加哥影评人协会奖  (2011)

  最佳男配角(提名) 尼克·诺特


  第14届美国青少年选择奖  (2012)

  最佳动作片男演员(提名) 汤姆·哈迪


  第2届豆瓣电影鑫像奖  (2012)

  鑫豆单元 最佳影片(外语)(提名)

  鑫豆单元 最佳男演员(外语)(提名) 汤姆·哈迪


Video
ID                                       : 1
Format                                   : AVC
Format/Info                              : Advanced Video Codec
Format profile                           : [email protected]
Format settings                          : CABAC / 5 Ref Frames
Format settings, CABAC                   : Yes
Format settings, ReFrames                : 5 frames
Codec ID                                 : V_MPEG4/ISO/AVC
Duration                                 : 2 h 19 min
Bit rate                                 : 16.4 Mb/s
Width                                    : 1 920 pixels
Height                                   : 800 pixels
Display aspect ratio                     : 2.40:1
Frame rate mode                          : Constant
Frame rate                               : 23.976 (24000/1001) FPS
Color space                              : YUV
Chroma subsampling                       : 4:2:0
Bit depth                                : 8 bits
Scan type                                : Progressive
Bits/(Pixel*Frame)                       : 0.445
Stream size                              : 16.0 GiB (76%)
Title                                    : Warrior.2011.1080p.BluRay.x264.TrueHD.7.1.Atmos-SWTYBLZ
Writing library                          : x264 core 148 r2748 97eaef2
Encoding settings                        : cabac=1 / ref=5 / deblock=1:-1:-1 / analyse=0x3:0x133 / me=umh / subme=10 / psy=1 / psy_rd=1.00:0.15 / mixed_ref=1 / me_range=48 / chroma_me=1 / trellis=2 / 8x8dct=1 / cqm=0 / deadzone=21,11 / fast_pskip=1 / chroma_qp_offset=-3 / threads=25 / lookahead_threads=4 / sliced_threads=0 / nr=0 / decimate=0 / interlaced=0 / bluray_compat=0 / constrained_intra=0 / bframes=8 / b_pyramid=2 / b_adapt=2 / b_bias=0 / direct=3 / weightb=1 / open_gop=0 / weightp=2 / keyint=250 / keyint_min=23 / scenecut=40 / intra_refresh=0 / rc_lookahead=60 / rc=crf / mbtree=1 / crf=19.0 / qcomp=0.60 / qpmin=0 / qpmax=69 / qpstep=4 / ip_ratio=1.40 / aq=1:1.00
Default                                  : Yes
Forced                                   : No

Audio #1
ID                                       : 2
Format                                   : TrueHD
Format profile                           : TrueHD+Atmos / TrueHD
Codec ID                                 : A_TRUEHD
Duration                                 : 2 h 19 min
Bit rate mode                            : Variable
Bit rate                                 : 4 335 kb/s
Maximum bit rate                         : 8 205 kb/s
Channel(s)                               : Object Based / 8 channels
Channel positions                        : Object Based / Front: L C R, Side: L R, Back: L R, LFE
Sampling rate                            :  / 48.0 kHz
Frame rate                               : 1 200.000 FPS (40 SPF)
Compression mode                         : Lossless
Stream size                              : 4.24 GiB (20%)
Title                                    : Warrior.2011.1080p.BluRay.x264.TrueHD.7.1.Atmos-SWTYBLZ
Language                                 : English
Default                                  : Yes
Forced                                   : No

Audio #2
ID                                       : 3
Format                                   : AC-3
Format/Info                              : Audio Coding 3
Codec ID                                 : A_AC3
Duration                                 : 2 h 19 min
Bit rate mode                            : Constant
Bit rate                                 : 640 kb/s
Channel(s)                               : 6 channels
Channel positions                        : Front: L C R, Side: L R, LFE
Sampling rate                            : 48.0 kHz
Frame rate                               : 31.250 FPS (1536 SPF)
Bit depth                                : 16 bits
Compression mode                         : Lossy
Stream size                              : 640 MiB (3%)
Title                                    : Warrior.2011.1080p.BluRay.x264.TrueHD.7.1.Atmos-SWTYBLZ
Language                                 : English
Service kind                             : Complete Main
Default                                  : No
Forced                                   : No

Text #1
ID                                       : 4
Format                                   : PGS
Muxing mode                              : zlib
Codec ID                                 : S_HDMV/PGS
Codec ID/Info                            : Picture based subtitle format used on BDs/HD-DVDs
Duration                                 : 2 h 8 min
Bit rate                                 : 46.9 kb/s
Count of elements                        : 3724
Stream size                              : 42.9 MiB (0%)
Title                                    : English-PGS
Language                                 : English
Default                                  : Yes
Forced                                   : No

Text #2
ID                                       : 5
Format                                   : PGS
Muxing mode                              : zlib
Codec ID                                 : S_HDMV/PGS
Codec ID/Info                            : Picture based subtitle format used on BDs/HD-DVDs
Duration                                 : 2 h 12 min
Bit rate                                 : 48.6 kb/s
Count of elements                        : 3998
Stream size                              : 46.1 MiB (0%)
Title                                    : English-SDH-PGS
Language                                 : English
Default                                  : No
Forced                                   : No

Text #3
ID                                       : 6
Format                                   : PGS
Muxing mode                              : zlib
Codec ID                                 : S_HDMV/PGS
Codec ID/Info                            : Picture based subtitle format used on BDs/HD-DVDs
Duration                                 : 2 h 8 min
Bit rate                                 : 42.9 kb/s
Count of elements                        : 3760
Stream size                              : 39.3 MiB (0%)
Title                                    : Spanish-PGS
Language                                 : Spanish
Default                                  : No
Forced                                   : No

Menu
00:00:00.000                             : en:Just Passing Through
00:10:32.048                             : en:I\'ll Fight Him
00:16:45.922                             : en:Quiet Night
00:26:33.759                             : en:A Tournament
00:39:08.179                             : en:Back In The Cage
00:45:48.829                             : enaddy\'s Plea
00:51:28.127                             : en:Keep Moving
00:58:27.003                             : en:I\'m IN
01:06:01.666                             : enark Horse
01:14:26.462                             : en:Real Deal
01:22:32.114                             : en:Teaching A Lesson
01:30:34.846                             : en:Here To Fight
01:40:45.248                             : en:Trouble
01:52:55.185                             : en:Brothers
02:00:20.296                             : en:It\'s Over
02:06:49.602                             : en:New Beginnings





1 个附件 售价 大小 下载 时间

Warrior.2011.1080p.BluRay.x264.TrueHD.7.1.Atmos-SWTYBLZ[btbtt.me].torrent 0 金币 52.99K 3123 次 2017-12-30

#1楼
发帖时间:2017-12-30 20:24:12   |   回复数:6
s3364500
一代宗师
感谢分享~~~~
2017-12-30 #2楼
liyouchai
隐世仙人♂
谢谢楼主分享资源
2017-12-30 #3楼
jokingcheung
一代宗师
谢谢分享
2017-12-31 #4楼
911degrees
隐世仙人♂
非常感谢,谢谢分享
2017-12-31 #5楼
blue23
隐世仙人♂
感谢楼主分享
2017-12-31 #6楼
阿菈呆
武林高手
谢谢
9月前 #7楼
游客组