aoloffline
版主

[2011] [欧美] [动画] [BD-1080P] [BT下载]蓝精灵 2011.1080p.BluRay.x264.TrueHD.7.1.Atmos-SWTYBLZ 10GB

-->

The.Smurfs.2011.1080p.BluRay.x264.TrueHD.7.1.Atmos-SWTYBLZ

◎译  名 蓝精灵/蓝色小精灵(台)

◎片  名 The Smurfs

◎年  代 2011

◎产  地 美国/比利时

◎类  别 喜剧/动画/奇幻/家庭

◎语  言 英语

◎上映日期 2011-07-29(美国)/2011-08-10(中国大陆)

◎IMDb评分  5.5/10 from 72,746 users

◎IMDb链接  http://www.imdb.com/title/tt0472181/

◎豆瓣评分 7.2/10 from 81,825 users

◎豆瓣链接 https://movie.douban.com/subject/2159331/

◎BT之家整理 http://www.btbtt.me/

◎片  长 103分钟

◎导  演 拉加·高斯内尔 Raja Gosnell

◎主  演 尼尔·帕特里克·哈里斯 Neil Patrick Harris

      杰玛·梅斯 Jayma Mays

      汉克·阿扎利亚 Hank Azaria

      乔纳森·温特斯 Jonathan Winters

      凯蒂·派瑞 Katy Perry

      艾伦·卡明 Alan Cumming

      乔治·洛佩兹 George Lopez

      保罗·雷宾斯 Paul Reubens

      基南·汤普森 Kenan Thompson

      B·J·诺瓦克 B.J. Novak

      杰夫·福克斯沃西 Jeff Foxworthy

      沃尔夫冈·帕克 Wolfgang Puck

      索菲娅·维加拉 Sofía Vergara

      安东·尤金 Anton Yelchin


◎简  介


  在广袤安宁的原始森林中,快乐的蓝精灵们正在准备一年一度的蓝月亮节。而就在这欢喜忙碌的关头,他们的宿敌——邪恶的巫师格格巫(汉克·阿扎瑞亚 Hank Azaria 饰)和他的宠物阿兹猫闯入了蓝精灵的秘密领地。受到惊吓的蓝精灵四散而逃,其中可怜的笨笨(安东·尤金 Anton Yelchin 配音)则盲打误撞跑进了据说曾经死掉99个蓝精灵的瀑布进去。最终,笨笨连同营救他的蓝爸爸、蓝妹妹、聪聪等卷入了神秘的漩涡,来到了美国纽约的中央花园。在这个完全陌生的世界,他们得到化妆品业的帕特里克(尼尔·帕特里克•哈里斯 Neil Patrick Harris 配音)的帮助。为了返回大森林,蓝精灵们想尽各种办法。与此同时,格格巫和阿兹猫也来到纽约……

  本片根据比利时漫画家沛优(Peyo)及其夫人共同创作的漫画改编,早年曾被美国引进制作成TV版动画。


◎获奖情况


  第14届美国青少年选择奖  (2012)

  最佳动画片(提名)


Video
ID                                       : 1
Format                                   : AVC
Format/Info                              : Advanced Video Codec
Format profile                           : [email protected]
Format settings                          : CABAC / 4 Ref Frames
Format settings, CABAC                   : Yes
Format settings, ReFrames                : 4 frames
Codec ID                                 : V_MPEG4/ISO/AVC
Duration                                 : 1 h 42 min
Bit rate                                 : 9 543 kb/s
Width                                    : 1 920 pixels
Height                                   : 1 080 pixels
Display aspect ratio                     : 16:9
Frame rate mode                          : Constant
Frame rate                               : 23.976 (24000/1001) FPS
Color space                              : YUV
Chroma subsampling                       : 4:2:0
Bit depth                                : 8 bits
Scan type                                : Progressive
Bits/(Pixel*Frame)                       : 0.192
Stream size                              : 6.85 GiB (63%)
Title                                    : The.Smurfs.2011.1080p.BluRay.x264.TrueHD.7.1.Atmos-SWTYBLZ
Writing library                          : x264 core 148 r2748 97eaef2
Encoding settings                        : cabac=1 / ref=4 / deblock=1:1:1 / analyse=0x3:0x133 / me=umh / subme=10 / psy=1 / psy_rd=0.40:0.00 / mixed_ref=1 / me_range=48 / chroma_me=1 / trellis=2 / 8x8dct=1 / cqm=0 / deadzone=21,11 / fast_pskip=1 / chroma_qp_offset=-2 / threads=34 / lookahead_threads=8 / sliced_threads=0 / nr=0 / decimate=0 / interlaced=0 / bluray_compat=0 / constrained_intra=0 / bframes=10 / b_pyramid=2 / b_adapt=2 / b_bias=0 / direct=3 / weightb=1 / open_gop=0 / weightp=2 / keyint=250 / keyint_min=23 / scenecut=40 / intra_refresh=0 / rc_lookahead=60 / rc=crf / mbtree=1 / crf=17.0 / qcomp=0.60 / qpmin=0 / qpmax=69 / qpstep=4 / ip_ratio=1.40 / aq=1:0.60
Default                                  : Yes
Forced                                   : No

Audio #1
ID                                       : 2
Format                                   : TrueHD
Format profile                           : TrueHD+Atmos / TrueHD
Codec ID                                 : A_TRUEHD
Duration                                 : 1 h 42 min
Bit rate mode                            : Variable
Bit rate                                 : 4 697 kb/s
Maximum bit rate                         : 8 220 kb/s
Channel(s)                               : Object Based / 8 channels
Channel positions                        : Object Based / Front: L C R, Side: L R, Back: L R, LFE
Sampling rate                            :  / 48.0 kHz
Frame rate                               : 1 200.000 FPS (40 SPF)
Compression mode                         : Lossless
Stream size                              : 3.37 GiB (31%)
Title                                    : The.Smurfs.2011.1080p.BluRay.x264.TrueHD.7.1.Atmos-SWTYBLZ
Language                                 : English
Default                                  : Yes
Forced                                   : No

Audio #2
ID                                       : 3
Format                                   : AC-3
Format/Info                              : Audio Coding 3
Codec ID                                 : A_AC3
Duration                                 : 1 h 42 min
Bit rate mode                            : Constant
Bit rate                                 : 640 kb/s
Channel(s)                               : 6 channels
Channel positions                        : Front: L C R, Side: L R, LFE
Sampling rate                            : 48.0 kHz
Frame rate                               : 31.250 FPS (1536 SPF)
Bit depth                                : 16 bits
Compression mode                         : Lossy
Stream size                              : 470 MiB (4%)
Title                                    : The.Smurfs.2011.1080p.BluRay.x264.TrueHD.7.1.Atmos-SWTYBLZ
Language                                 : English
Service kind                             : Complete Main
Default                                  : No
Forced                                   : No

Text #1
ID                                       : 4
Format                                   : PGS
Muxing mode                              : zlib
Codec ID                                 : S_HDMV/PGS
Codec ID/Info                            : Picture based subtitle format used on BDs/HD-DVDs
Duration                                 : 1 s 600 ms
Bit rate                                 : 49.6 kb/s
Count of elements                        : 2
Stream size                              : 9.68 KiB (0%)
Title                                    : English-FORCED-PGS
Language                                 : English
Default                                  : Yes
Forced                                   : Yes

Text #2
ID                                       : 5
Format                                   : PGS
Muxing mode                              : zlib
Codec ID                                 : S_HDMV/PGS
Codec ID/Info                            : Picture based subtitle format used on BDs/HD-DVDs
Duration                                 : 1 h 35 min
Bit rate                                 : 47.8 kb/s
Count of elements                        : 3094
Stream size                              : 32.7 MiB (0%)
Title                                    : English-PGS
Language                                 : English
Default                                  : No
Forced                                   : No

Text #3
ID                                       : 6
Format                                   : PGS
Muxing mode                              : zlib
Codec ID                                 : S_HDMV/PGS
Codec ID/Info                            : Picture based subtitle format used on BDs/HD-DVDs
Duration                                 : 1 h 41 min
Bit rate                                 : 55.4 kb/s
Count of elements                        : 4024
Stream size                              : 40.2 MiB (0%)
Title                                    : English-SDH-PGS
Language                                 : English
Default                                  : No
Forced                                   : No

Text #4
ID                                       : 7
Format                                   : PGS
Muxing mode                              : zlib
Codec ID                                 : S_HDMV/PGS
Codec ID/Info                            : Picture based subtitle format used on BDs/HD-DVDs
Duration                                 : 1 h 35 min
Bit rate                                 : 21.9 kb/s
Count of elements                        : 3480
Stream size                              : 15.0 MiB (0%)
Title                                    : Arabic-PGS
Language                                 : Arabic
Default                                  : No
Forced                                   : No

Text #5
ID                                       : 8
Format                                   : PGS
Muxing mode                              : zlib
Codec ID                                 : S_HDMV/PGS
Codec ID/Info                            : Picture based subtitle format used on BDs/HD-DVDs
Duration                                 : 1 h 35 min
Bit rate                                 : 36.3 kb/s
Count of elements                        : 3263
Stream size                              : 24.8 MiB (0%)
Title                                    : Chinese-PGS
Language                                 : Chinese
Default                                  : No
Forced                                   : No

Text #6
ID                                       : 9
Format                                   : PGS
Muxing mode                              : zlib
Codec ID                                 : S_HDMV/PGS
Codec ID/Info                            : Picture based subtitle format used on BDs/HD-DVDs
Duration                                 : 1 h 35 min
Bit rate                                 : 37.0 kb/s
Count of elements                        : 3263
Stream size                              : 25.3 MiB (0%)
Title                                    : Chinese-PGS
Language                                 : Chinese
Default                                  : No
Forced                                   : No

Text #7
ID                                       : 10
Format                                   : PGS
Muxing mode                              : zlib
Codec ID                                 : S_HDMV/PGS
Codec ID/Info                            : Picture based subtitle format used on BDs/HD-DVDs
Duration                                 : 1 h 35 min
Bit rate                                 : 43.8 kb/s
Count of elements                        : 3120
Stream size                              : 29.9 MiB (0%)
Title                                    : Czech-PGS
Language                                 : Czech
Default                                  : No
Forced                                   : No

Text #8
ID                                       : 11
Format                                   : PGS
Muxing mode                              : zlib
Codec ID                                 : S_HDMV/PGS
Codec ID/Info                            : Picture based subtitle format used on BDs/HD-DVDs
Duration                                 : 1 h 35 min
Bit rate                                 : 47.0 kb/s
Count of elements                        : 3118
Stream size                              : 32.1 MiB (0%)
Title                                    : Danish-PGS
Language                                 : Danish
Default                                  : No
Forced                                   : No

Text #9
ID                                       : 12
Format                                   : PGS
Muxing mode                              : zlib
Codec ID                                 : S_HDMV/PGS
Codec ID/Info                            : Picture based subtitle format used on BDs/HD-DVDs
Duration                                 : 1 h 35 min
Bit rate                                 : 32.6 kb/s
Count of elements                        : 3112
Stream size                              : 22.3 MiB (0%)
Title                                    : Dutch-PGS
Language                                 : Dutch
Default                                  : No
Forced                                   : No

Text #10
ID                                       : 13
Format                                   : PGS
Muxing mode                              : zlib
Codec ID                                 : S_HDMV/PGS
Codec ID/Info                            : Picture based subtitle format used on BDs/HD-DVDs
Duration                                 : 1 h 35 min
Bit rate                                 : 44.7 kb/s
Count of elements                        : 3118
Stream size                              : 30.5 MiB (0%)
Title                                    : Finnish-PGS
Language                                 : Finnish
Default                                  : No
Forced                                   : No

Text #11
ID                                       : 14
Format                                   : PGS
Muxing mode                              : zlib
Codec ID                                 : S_HDMV/PGS
Codec ID/Info                            : Picture based subtitle format used on BDs/HD-DVDs
Duration                                 : 1 h 41 min
Bit rate                                 : 38.3 kb/s
Count of elements                        : 3095
Stream size                              : 27.8 MiB (0%)
Title                                    : French-PGS
Language                                 : French
Default                                  : No
Forced                                   : No

Text #12
ID                                       : 15
Format                                   : PGS
Muxing mode                              : zlib
Codec ID                                 : S_HDMV/PGS
Codec ID/Info                            : Picture based subtitle format used on BDs/HD-DVDs
Duration                                 : 1 h 35 min
Bit rate                                 : 50.3 kb/s
Count of elements                        : 3114
Stream size                              : 34.4 MiB (0%)
Title                                    : German-PGS
Language                                 : German
Default                                  : No
Forced                                   : No

Text #13
ID                                       : 16
Format                                   : PGS
Muxing mode                              : zlib
Codec ID                                 : S_HDMV/PGS
Codec ID/Info                            : Picture based subtitle format used on BDs/HD-DVDs
Duration                                 : 1 h 35 min
Bit rate                                 : 46.9 kb/s
Count of elements                        : 3046
Stream size                              : 32.1 MiB (0%)
Title                                    : Greek-PGS
Language                                 : Greek
Default                                  : No
Forced                                   : No

Text #14
ID                                       : 17
Format                                   : PGS
Muxing mode                              : zlib
Codec ID                                 : S_HDMV/PGS
Codec ID/Info                            : Picture based subtitle format used on BDs/HD-DVDs
Duration                                 : 1 h 35 min
Bit rate                                 : 45.4 kb/s
Count of elements                        : 3122
Stream size                              : 31.0 MiB (0%)
Title                                    : Hungarian-PGS
Language                                 : Hungarian
Default                                  : No
Forced                                   : No

Text #15
ID                                       : 18
Format                                   : PGS
Muxing mode                              : zlib
Codec ID                                 : S_HDMV/PGS
Codec ID/Info                            : Picture based subtitle format used on BDs/HD-DVDs
Duration                                 : 1 h 35 min
Bit rate                                 : 43.7 kb/s
Count of elements                        : 3120
Stream size                              : 29.8 MiB (0%)
Title                                    : Italian-PGS
Language                                 : Italian
Default                                  : No
Forced                                   : No

Text #16
ID                                       : 19
Format                                   : PGS
Muxing mode                              : zlib
Codec ID                                 : S_HDMV/PGS
Codec ID/Info                            : Picture based subtitle format used on BDs/HD-DVDs
Duration                                 : 1 h 35 min
Bit rate                                 : 23.5 kb/s
Count of elements                        : 3180
Stream size                              : 16.0 MiB (0%)
Title                                    : Korean-PGS
Language                                 : Korean
Default                                  : No
Forced                                   : No

Text #17
ID                                       : 20
Format                                   : PGS
Muxing mode                              : zlib
Codec ID                                 : S_HDMV/PGS
Codec ID/Info                            : Picture based subtitle format used on BDs/HD-DVDs
Duration                                 : 1 h 35 min
Bit rate                                 : 43.1 kb/s
Count of elements                        : 3114
Stream size                              : 29.4 MiB (0%)
Title                                    : Norwegian-PGS
Language                                 : Norwegian
Default                                  : No
Forced                                   : No

Text #18
ID                                       : 21
Format                                   : PGS
Muxing mode                              : zlib
Codec ID                                 : S_HDMV/PGS
Codec ID/Info                            : Picture based subtitle format used on BDs/HD-DVDs
Duration                                 : 1 h 35 min
Bit rate                                 : 45.3 kb/s
Count of elements                        : 3122
Stream size                              : 31.0 MiB (0%)
Title                                    : Polish-PGS
Language                                 : Polish
Default                                  : No
Forced                                   : No

Text #19
ID                                       : 22
Format                                   : PGS
Muxing mode                              : zlib
Codec ID                                 : S_HDMV/PGS
Codec ID/Info                            : Picture based subtitle format used on BDs/HD-DVDs
Duration                                 : 1 h 35 min
Bit rate                                 : 41.1 kb/s
Count of elements                        : 3160
Stream size                              : 28.1 MiB (0%)
Title                                    : Portuguese-PGS
Language                                 : Portuguese
Default                                  : No
Forced                                   : No

Text #20
ID                                       : 23
Format                                   : PGS
Muxing mode                              : zlib
Codec ID                                 : S_HDMV/PGS
Codec ID/Info                            : Picture based subtitle format used on BDs/HD-DVDs
Duration                                 : 1 h 35 min
Bit rate                                 : 46.8 kb/s
Count of elements                        : 3033
Stream size                              : 32.0 MiB (0%)
Title                                    : Portuguese-PGS
Language                                 : Portuguese
Default                                  : No
Forced                                   : No

Text #21
ID                                       : 24
Format                                   : PGS
Muxing mode                              : zlib
Codec ID                                 : S_HDMV/PGS
Codec ID/Info                            : Picture based subtitle format used on BDs/HD-DVDs
Duration                                 : 1 h 35 min
Bit rate                                 : 45.4 kb/s
Count of elements                        : 3569
Stream size                              : 31.0 MiB (0%)
Title                                    : Russian-PGS
Language                                 : Russian
Default                                  : No
Forced                                   : No

Text #22
ID                                       : 25
Format                                   : PGS
Muxing mode                              : zlib
Codec ID                                 : S_HDMV/PGS
Codec ID/Info                            : Picture based subtitle format used on BDs/HD-DVDs
Duration                                 : 1 h 35 min
Bit rate                                 : 46.7 kb/s
Count of elements                        : 3120
Stream size                              : 31.9 MiB (0%)
Title                                    : Spanish-PGS
Language                                 : Spanish
Default                                  : No
Forced                                   : No

Text #23
ID                                       : 26
Format                                   : PGS
Muxing mode                              : zlib
Codec ID                                 : S_HDMV/PGS
Codec ID/Info                            : Picture based subtitle format used on BDs/HD-DVDs
Duration                                 : 1 h 35 min
Bit rate                                 : 42.1 kb/s
Count of elements                        : 3014
Stream size                              : 28.8 MiB (0%)
Title                                    : Spanish-PGS
Language                                 : Spanish
Default                                  : No
Forced                                   : No

Text #24
ID                                       : 27
Format                                   : PGS
Muxing mode                              : zlib
Codec ID                                 : S_HDMV/PGS
Codec ID/Info                            : Picture based subtitle format used on BDs/HD-DVDs
Duration                                 : 1 h 35 min
Bit rate                                 : 44.0 kb/s
Count of elements                        : 3116
Stream size                              : 30.0 MiB (0%)
Title                                    : Swedish-PGS
Language                                 : Swedish
Default                                  : No
Forced                                   : No

Text #25
ID                                       : 28
Format                                   : PGS
Muxing mode                              : zlib
Codec ID                                 : S_HDMV/PGS
Codec ID/Info                            : Picture based subtitle format used on BDs/HD-DVDs
Duration                                 : 1 h 35 min
Bit rate                                 : 35.5 kb/s
Count of elements                        : 3086
Stream size                              : 24.2 MiB (0%)
Title                                    : Thai-PGS
Language                                 : Thai
Default                                  : No
Forced                                   : No

Text #26
ID                                       : 29
Format                                   : PGS
Muxing mode                              : zlib
Codec ID                                 : S_HDMV/PGS
Codec ID/Info                            : Picture based subtitle format used on BDs/HD-DVDs
Duration                                 : 1 h 35 min
Bit rate                                 : 47.3 kb/s
Count of elements                        : 3120
Stream size                              : 32.3 MiB (0%)
Title                                    : Turkish-PGS
Language                                 : Turkish
Default                                  : No
Forced                                   : No

Menu
00:00:00.000                             : en:00:00:00.000
00:04:50.207                             : en:00:04:50.207
00:11:23.766                             : en:00:11:23.766
00:18:30.776                             : en:00:18:30.776
00:23:45.591                             : en:00:23:45.591
00:29:26.098                             : en:00:29:26.098
00:35:04.352                             : en:00:35:04.352
00:40:57.288                             : en:00:40:57.288
00:46:06.472                             : en:00:46:06.472
00:53:24.451                             : en:00:53:24.451
00:59:30.942                             : en:00:59:30.942
01:03:44.195                             : en:01:03:44.195
01:08:17.552                             : en:01:08:17.552
01:12:54.704                             : en:01:12:54.704
01:20:38.542                             : en:01:20:38.542
01:30:52.739                             : en:01:30:52.739





1 个附件 售价 大小 下载 时间

The.Smurfs.2011.1080p.BluRay.x264.TrueHD.7.1.Atmos-SWTYBLZ[btbtt.me].torrent 0 金币 55.30K 1974 次 2018-1-3

#1楼
发帖时间:2018-01-03 22:56:32   |   回复数:3
911degrees
隐世仙人♂
非常感谢,谢谢分享
2018-1-4 #2楼
blue23
隐世仙人♂
感谢楼主分享
2018-1-4 #3楼
liyouchai
隐世仙人♂
谢谢楼主分享资源
2018-1-4 #4楼
游客组