aoloffline
版主

[2018] [欧美] [喜剧] [WEB-720P] [BT下载]波尔卡舞王 The.Polka.King.2018.720p.WEBRip.x264-STRiFE 2.09GB

-->

◎译  名 波尔卡舞王

◎片  名 The Polka King

◎年  代 2017

◎产  地 美国

◎类  别 剧情/喜剧/传记

◎语  言 英语

◎上映日期 2017-01-22(圣丹斯电影节)/2018-01-12(美国)

◎IMDb评分  5.6/10 from 118 users

◎IMDb链接  http://www.imdb.com/title/tt5539052/

◎BT之家整理 http://www.btbtt.co

◎片  长 95分钟

◎导  演 玛雅·福布斯 Maya Forbes / 华莱士·沃洛达斯基 Wallace Wolodarsky

◎主  演 杰克·布莱克 Jack Black

      珍妮·斯蕾特 Jenny Slate

      詹森·舒瓦兹曼 Jason Schwartzman

      罗伯特·卡普荣 Robert Capron

      威利·加森 Willie Garson

      杰基·韦佛 Jacki Weaver

      瓦妮莎·贝尔 Vanessa Bayer

      J·B·斯穆夫 J.B. Smoove


◎简  介


  该片改编自2009年讲述波尔卡舞王扬·莱万的纪录片,一代波尔卡传奇舞王扬·莱万(布莱克饰)因欺骗粉丝投资“庞氏骗局”最终锒铛入狱。


Video
ID                                       : 1
Format                                   : AVC
Format/Info                              : Advanced Video Codec
Format profile                           : High@L4.1
Format settings                          : CABAC / 5 Ref Frames
Format settings, CABAC                   : Yes
Format settings, RefFrames               : 5 frames
Codec ID                                 : V_MPEG4/ISO/AVC
Duration                                 : 1 h 34 min
Bit rate                                 : 2 792 kb/s
Width                                    : 1 280 pixels
Height                                   : 534 pixels
Display aspect ratio                     : 2.40:1
Frame rate mode                          : Constant
Frame rate                               : 23.976 (24000/1001) FPS
Color space                              : YUV
Chroma subsampling                       : 4:2:0
Bit depth                                : 8 bits
Scan type                                : Progressive
Bits/(Pixel*Frame)                       : 0.170
Stream size                              : 1.83 GiB (88%)
Writing library                          : x264 core 152 r2851 ba24899
Encoding settings                        : cabac=1 / ref=5 / deblock=1:-3:-3 / analyse=0x3:0x113 / me=umh / subme=8 / psy=1 / psy_rd=1.00:0.15 / mixed_ref=1 / me_range=16 / chroma_me=1 / trellis=2 / 8x8dct=1 / cqm=0 / deadzone=21,11 / fast_pskip=0 / chroma_qp_offset=-2 / threads=12 / lookahead_threads=2 / sliced_threads=0 / nr=0 / decimate=1 / interlaced=0 / bluray_compat=0 / constrained_intra=0 / bframes=3 / b_pyramid=2 / b_adapt=2 / b_bias=0 / direct=3 / weightb=1 / open_gop=0 / weightp=2 / keyint=240 / keyint_min=23 / scenecut=40 / intra_refresh=0 / rc_lookahead=50 / rc=crf / mbtree=1 / crf=18.0 / qcomp=0.60 / qpmin=0 / qpmax=69 / qpstep=4 / ip_ratio=1.40 / aq=3:0.80
Language                                 : English
Default                                  : Yes
Forced                                   : No

Audio
ID                                       : 2
Format                                   : AC-3
Format/Info                              : Audio Coding 3
Format settings, Endianness              : Big
Codec ID                                 : A_AC3
Duration                                 : 1 h 34 min
Bit rate mode                            : Constant
Bit rate                                 : 384 kb/s
Channel(s)                               : 6 channels
Channel positions                        : Front: L C R, Side: L R, LFE
Sampling rate                            : 48.0 kHz
Frame rate                               : 31.250 FPS (1536 SPF)
Bit depth                                : 16 bits
Compression mode                         : Lossy
Stream size                              : 258 MiB (12%)
Language                                 : English
Service kind                             : Complete Main
Default                                  : Yes
Forced                                   : No

Text #1
ID                                       : 3
Format                                   : UTF-8
Codec ID                                 : S_TEXT/UTF8
Codec ID/Info                            : UTF-8 Plain Text
Duration                                 : 1 h 31 min
Bit rate                                 : 84 b/s
Count of elements                        : 1600
Stream size                              : 56.5 KiB (0%)
Language                                 : English
Default                                  : No
Forced                                   : No

Text #2
ID                                       : 4
Format                                   : UTF-8
Codec ID                                 : S_TEXT/UTF8
Codec ID/Info                            : UTF-8 Plain Text
Duration                                 : 1 h 30 min
Bit rate                                 : 75 b/s
Count of elements                        : 1363
Stream size                              : 49.8 KiB (0%)
Title                                    : Brazilian
Language                                 : Portuguese
Default                                  : No
Forced                                   : No

Text #3
ID                                       : 5
Format                                   : UTF-8
Codec ID                                 : S_TEXT/UTF8
Codec ID/Info                            : UTF-8 Plain Text
Duration                                 : 1 h 32 min
Bit rate                                 : 78 b/s
Count of elements                        : 1385
Stream size                              : 53.3 KiB (0%)
Language                                 : French
Default                                  : No
Forced                                   : No

Text #4
ID                                       : 6
Format                                   : UTF-8
Codec ID                                 : S_TEXT/UTF8
Codec ID/Info                            : UTF-8 Plain Text
Duration                                 : 1 h 32 min
Bit rate                                 : 77 b/s
Count of elements                        : 1405
Stream size                              : 52.4 KiB (0%)
Language                                 : German
Default                                  : No
Forced                                   : No

Text #5
ID                                       : 7
Format                                   : UTF-8
Codec ID                                 : S_TEXT/UTF8
Codec ID/Info                            : UTF-8 Plain Text
Duration                                 : 1 h 32 min
Bit rate                                 : 70 b/s
Count of elements                        : 1242
Stream size                              : 48.1 KiB (0%)
Language                                 : Italian
Default                                  : No
Forced                                   : No



1 个附件 售价 大小 下载 时间

The.Polka.King.2018.720p.WEBRip.x264-STRiFE[btbtt.me].torrent 0 金币 84.07K 469 次 3月前

#1楼
发帖时间:2018-01-12 18:08:21   |   回复数:2
liyouchai
超凡入圣№
谢谢楼主分享资源
3月前 #2楼
blue23
隐世仙人♂
感谢楼主分享
3月前 #3楼
游客组