aoloffline
版主

[2012] [欧美] [奇幻] [BD-4K] [BT下载]白雪公主与猎人 2012.EXTENDED.2160p.BluRay.x265.10bit.SDR.DTS-SWTYBLZ 28GB

-->

Snow.White.and.the.Huntsman.2012.EXTENDED.2160p.BluRay.x265.10bit.SDR.DTS-X.7.1-SWTYBLZ

◎译  名 白雪公主与猎人/公主与狩猎者(台)/白雪公主之魔幻复仇记(港)

◎片  名 Snow White and the Huntsman

◎年  代 2012

◎产  地 美国

◎类  别 动作/奇幻/冒险

◎语  言 英语

◎上映日期 2012-06-01(美国)

◎IMDb评分  6.1/10 from 245,913 users

◎IMDb链接  http://www.imdb.com/title/tt1735898/

◎豆瓣评分 5.4/10 from 46,584 users

◎豆瓣链接 https://movie.douban.com/subject/5327463/

◎片  长 127分钟/132分钟(加长版)

◎导  演 鲁伯特·山德斯  Rupert Sanders

◎主  演 克里斯·海姆斯沃斯 Chris Hemsworth

      克里斯汀·斯图尔特 Kristen Stewart

      查理兹·塞隆 Charlize Theron

      山姆·克拉弗林 Sam Claflin

      萨姆·斯普卢尔  Sam Spruell

      伊恩·麦柯肖恩 Ian McShane

      鲍勃·霍斯金斯 Bob Hoskins

      雷·温斯顿 Ray Winstone

      埃迪·马森 Eddie Marsan

      莉莉·科尔 Lily Cole

      尼克·弗罗斯特 Nick Frost

      托比·琼斯 Toby Jones


◎简  介


  很久很久以前,在一个美丽华贵的国度,善良而迷人的白雪公主(克里斯汀·斯图尔特 Kristen Stewart 饰)降生到这个世上。她用有让人欣羡的家境与童年,但是好景不长,他的母亲过早去世,祖国遭遇神秘的黑色军队袭击,更为绝望的是父王将偶然相遇的绝世美女拉文娜(查理兹· 塞隆 Charlize Theron 饰)迎为新的王后。拉文娜带来了难以想象的灾难,她狂暴与黑暗的欲望使她攫取了整个国家。在得知王后将要加害自己之时,白雪公主奋力从城堡逃脱躲入黑森林。不久,肩负着残酷使命的猎人(克里斯·海姆斯沃斯 Chris Hemsworth 饰)尾随而至……

  本片荣获2012年青年选择奖怒发冲冠奖(查理兹·塞隆)、最佳夏季电影女主角(克里斯汀·斯图尔特)、最佳夏季电影男主角(克里斯·海姆斯沃斯)。


◎获奖情况


  第85届奥斯卡金像奖  (2013)

  最佳视觉效果(提名) 迈克尔·道森 / 塞德里克·萨科 / 菲尔·布伦南 / 尼尔·科博尔德

  最佳服装设计(提名) 柯琳·阿特伍德


  第33届金酸莓奖  (2013)

  最差女主角 克里斯汀·斯图尔特


  第22届MTV电影奖  (2013)

  MTV电影奖 最佳英雄形象(提名) 克里斯汀·斯图尔特


  第17届金卫星奖  (2012)

  电影部门 最佳服装设计(提名) 柯琳·阿特伍德

  电影部门 最佳音效(提名) Chris Munro / Craig Henighan / 安迪·尼尔森


  第17届圣地亚哥影评人协会奖  (2012)

  年度劳模 格雷格·弗莱瑟


  第14届美国青少年选择奖  (2012)

  最佳电影反派(提名) 查理兹·塞隆

  最佳突破表演电影新星(提名) 山姆·克拉弗林

  Choice Movie: Hissy Fit 查理兹·塞隆

  最佳暑期动作冒险电影(提名)

  最佳暑期电影女演员 克里斯汀·斯图尔特

  最佳暑期电影女演员(提名) 查理兹·塞隆


  第3届豆瓣电影鑫像奖  (2013)

  豆渣单元 最渣影片(外语)(提名)

  豆渣单元 最渣导演(外语)(提名) 鲁伯特·桑德斯

  豆渣单元 最渣男演员(外语)(提名) 克里斯·海姆斯沃斯

  豆渣单元 最渣女演员(外语) 克里斯汀·斯图尔特

  豆渣单元 最渣女演员(外语)(提名) 查理兹·塞隆



Video
ID                                       : 1
Format                                   : HEVC
Format/Info                              : High Efficiency Video Coding
Format profile                           : Main 10@L5.1@High
Codec ID                                 : V_MPEGH/ISO/HEVC
Duration                                 : 2 h 11 min
Bit rate                                 : 26.0 Mb/s
Width                                    : 3 840 pixels
Height                                   : 1 632 pixels
Display aspect ratio                     : 2.35:1
Frame rate mode                          : Constant
Frame rate                               : 23.976 (24000/1001) FPS
Color space                              : YUV
Chroma subsampling                       : 4:2:0
Bit depth                                : 10 bits
Bits/(Pixel*Frame)                       : 0.173
Stream size                              : 23.9 GiB (85%)
Title                                    : Snow.White.and.the.Huntsman.2012.EXTENDED.2160p.BluRay.x265.10bit.SDR.DTS-X.7.1-SWTYBLZ
Writing library                          : x265 2.5b4a5bcfe29c7:[Windows][GCC 4.9.3][64 bit] 10bit
Encoding settings                        : cpuid=1173503 / frame-threads=16 / numa-pools=24,24,24,24 / wpp / no-pmode / no-pme / no-psnr / no-ssim / log-level=2 / input-csp=1 / input-res=3840x1632 / interlace=0 / total-frames=0 / level-idc=51 / high-tier=1 / uhd-bd=0 / ref=3 / no-allow-non-conformance / repeat-headers / annexb / aud / hrd / info / hash=0 / no-temporal-layers / no-open-gop / min-keyint=1 / keyint=24 / bframes=4 / b-adapt=2 / b-pyramid / bframe-bias=0 / rc-lookahead=25 / lookahead-slices=4 / scenecut=40 / no-intra-refresh / ctu=64 / min-cu-size=8 / no-rect / no-amp / max-tu-size=32 / tu-inter-depth=1 / tu-intra-depth=1 / limit-tu=0 / rdoq-level=0 / dynamic-rd=0.00 / no-ssim-rd / signhide / no-tskip / nr-intra=0 / nr-inter=0 / no-constrained-intra / strong-intra-smoothing / max-merge=2 / limit-refs=3 / no-limit-modes / me=1 / subme=2 / merange=57 / temporal-mvp / weightp / no-weightb / no-analyze-src-pics / deblock=0:0 / no-sao / no-sao-non-deblock / rd=3 / no-early-skip / rskip / no-fast-intra / no-tskip-fast / no-cu-lossless / no-b-intra / rdpenalty=0 / psy-rd=2.00 / psy-rdoq=0.00 / no-rd-refine / analysis-reuse-mode=0 / no-lossless / cbqpoffs=0 / crqpoffs=0 / rc=crf / crf=16.0 / qcomp=0.60 / qpstep=4 / stats-write=0 / stats-read=0 / vbv-maxrate=160000 / vbv-bufsize=160000 / vbv-init=0.9 / crf-max=0.0 / crf-min=0.0 / ipratio=1.40 / pbratio=1.30 / aq-mode=1 / aq-strength=1.00 / cutree / zone-count=0 / no-strict-cbr / qg-size=32 / no-rc-grain / qpmax=69 / qpmin=0 / no-const-vbv / sar=1 / overscan=0 / videoformat=5 / range=0 / colorprim=2 / transfer=2 / colormatrix=2 / chromaloc=0 / display-window=0 / max-cll=0,0 / min-luma=0 / max-luma=1023 / log2-max-poc-lsb=8 / vui-timing-info / vui-hrd-info / slices=1 / opt-qp-pps / opt-ref-list-length-pps / no-multi-pass-opt-rps / scenecut-bias=0.05 / no-opt-cu-delta-qp / no-aq-motion / no-hdr / no-hdr-opt / no-dhdr10-opt / analysis-reuse-level=5 / scale-factor=0 / refine-intra=0 / refine-inter=0 / refine-mv=0 / no-limit-sao / ctu-info=0
Default                                  : Yes
Forced                                   : No

Audio #1
ID                                       : 2
Format                                   : DTS
Format/Info                              : Digital Theater Systems
Format profile                           : X / MA / Core
Codec ID                                 : A_DTS
Duration                                 : 2 h 11 min
Bit rate mode                            : Variable / Variable / Constant
Bit rate                                 : 3 840 kb/s / 3 840 kb/s / 1 509 kb/s
Channel(s)                               : Object Based / 8 channels / 6 channels
Channel positions                        : Object Based / Front: L C R, Side: L R, Back: L R, LFE / Front: L C R, Side: L R, LFE
Sampling rate                            :  / 48.0 kHz / 48.0 kHz
Frame rate                               : 93.750 FPS (512 SPF)
Bit depth                                :  / 24 bits / 24 bits
Compression mode                         :  / Lossless / Lossy
Stream size                              : 3.50 GiB (12%)
Title                                    : Snow.White.and.the.Huntsman.2012.EXTENDED.2160p.BluRay.x265.10bit.SDR.DTS-X.7.1-SWTYBLZ
Language                                 : English
Default                                  : Yes
Forced                                   : No

Audio #2
ID                                       : 3
Format                                   : AC-3
Format/Info                              : Audio Coding 3
Codec ID                                 : A_AC3
Duration                                 : 2 h 11 min
Bit rate mode                            : Constant
Bit rate                                 : 640 kb/s
Channel(s)                               : 6 channels
Channel positions                        : Front: L C R, Side: L R, LFE
Sampling rate                            : 48.0 kHz
Frame rate                               : 31.250 FPS (1536 SPF)
Bit depth                                : 16 bits
Compression mode                         : Lossy
Stream size                              : 602 MiB (2%)
Title                                    : Snow.White.and.the.Huntsman.2012.EXTENDED.2160p.BluRay.x265.10bit.SDR.DTS-X.7.1-SWTYBLZ
Language                                 : English
Service kind                             : Complete Main
Default                                  : No
Forced                                   : No

Text #1
ID                                       : 4
Format                                   : UTF-8
Codec ID                                 : S_TEXT/UTF8
Codec ID/Info                            : UTF-8 Plain Text
Duration                                 : 2 h 10 min
Bit rate                                 : 27 b/s
Count of elements                        : 1050
Stream size                              : 25.8 KiB (0%)
Title                                    : English-SRT
Language                                 : English
Default                                  : Yes
Forced                                   : No

Text #2
ID                                       : 5
Format                                   : PGS
Muxing mode                              : zlib
Codec ID                                 : S_HDMV/PGS
Codec ID/Info                            : Picture based subtitle format used on BDs/HD-DVDs
Duration                                 : 1 h 59 min
Bit rate                                 : 19.4 kb/s
Count of elements                        : 2112
Stream size                              : 16.7 MiB (0%)
Title                                    : English-PGS
Language                                 : English
Default                                  : No
Forced                                   : No

Text #3
ID                                       : 6
Format                                   : PGS
Muxing mode                              : zlib
Codec ID                                 : S_HDMV/PGS
Codec ID/Info                            : Picture based subtitle format used on BDs/HD-DVDs
Duration                                 : 1 h 59 min
Bit rate                                 : 12.0 kb/s
Count of elements                        : 1606
Stream size                              : 10.3 MiB (0%)
Title                                    : Japanese-PGS
Language                                 : Japanese
Default                                  : No
Forced                                   : No

Text #4
ID                                       : 7
Format                                   : PGS
Muxing mode                              : zlib
Codec ID                                 : S_HDMV/PGS
Codec ID/Info                            : Picture based subtitle format used on BDs/HD-DVDs
Duration                                 : 2 h 10 min
Bit rate                                 : 14.1 kb/s
Count of elements                        : 1796
Stream size                              : 13.1 MiB (0%)
Title                                    : French-PGS
Language                                 : French
Default                                  : No
Forced                                   : No

Text #5
ID                                       : 8
Format                                   : PGS
Muxing mode                              : zlib
Codec ID                                 : S_HDMV/PGS
Codec ID/Info                            : Picture based subtitle format used on BDs/HD-DVDs
Duration                                 : 2 h 10 min
Bit rate                                 : 17.3 kb/s
Count of elements                        : 1818
Stream size                              : 16.1 MiB (0%)
Title                                    : German-PGS
Language                                 : German
Default                                  : No
Forced                                   : No

Text #6
ID                                       : 9
Format                                   : PGS
Muxing mode                              : zlib
Codec ID                                 : S_HDMV/PGS
Codec ID/Info                            : Picture based subtitle format used on BDs/HD-DVDs
Duration                                 : 2 h 10 min
Bit rate                                 : 15.3 kb/s
Count of elements                        : 1816
Stream size                              : 14.3 MiB (0%)
Title                                    : Italian-PGS
Language                                 : Italian
Default                                  : No
Forced                                   : No

Text #7
ID                                       : 10
Format                                   : PGS
Muxing mode                              : zlib
Codec ID                                 : S_HDMV/PGS
Codec ID/Info                            : Picture based subtitle format used on BDs/HD-DVDs
Duration                                 : 2 h 10 min
Bit rate                                 : 15.0 kb/s
Count of elements                        : 1604
Stream size                              : 14.0 MiB (0%)
Title                                    : Swedish-PGS
Language                                 : Swedish
Default                                  : No
Forced                                   : No

Text #8
ID                                       : 11
Format                                   : PGS
Muxing mode                              : zlib
Codec ID                                 : S_HDMV/PGS
Codec ID/Info                            : Picture based subtitle format used on BDs/HD-DVDs
Duration                                 : 2 h 10 min
Bit rate                                 : 14.1 kb/s
Count of elements                        : 1416
Stream size                              : 13.2 MiB (0%)
Title                                    : Danish-PGS
Language                                 : Danish
Default                                  : No
Forced                                   : No

Text #9
ID                                       : 12
Format                                   : PGS
Muxing mode                              : zlib
Codec ID                                 : S_HDMV/PGS
Codec ID/Info                            : Picture based subtitle format used on BDs/HD-DVDs
Duration                                 : 2 h 10 min
Bit rate                                 : 14.9 kb/s
Count of elements                        : 1778
Stream size                              : 14.0 MiB (0%)
Title                                    : Finnish-PGS
Language                                 : Finnish
Default                                  : No
Forced                                   : No

Text #10
ID                                       : 13
Format                                   : PGS
Muxing mode                              : zlib
Codec ID                                 : S_HDMV/PGS
Codec ID/Info                            : Picture based subtitle format used on BDs/HD-DVDs
Duration                                 : 2 h 10 min
Bit rate                                 : 14.6 kb/s
Count of elements                        : 1574
Stream size                              : 13.6 MiB (0%)
Title                                    : Dutch-PGS
Language                                 : Dutch
Default                                  : No
Forced                                   : No

Text #11
ID                                       : 14
Format                                   : PGS
Muxing mode                              : zlib
Codec ID                                 : S_HDMV/PGS
Codec ID/Info                            : Picture based subtitle format used on BDs/HD-DVDs
Duration                                 : 2 h 10 min
Bit rate                                 : 13.6 kb/s
Count of elements                        : 1686
Stream size                              : 12.7 MiB (0%)
Title                                    : Norwegian-PGS
Language                                 : Norwegian
Default                                  : No
Forced                                   : No

Text #12
ID                                       : 15
Format                                   : PGS
Muxing mode                              : zlib
Codec ID                                 : S_HDMV/PGS
Codec ID/Info                            : Picture based subtitle format used on BDs/HD-DVDs
Duration                                 : 2 h 10 min
Bit rate                                 : 16.8 kb/s
Count of elements                        : 1784
Stream size                              : 15.7 MiB (0%)
Title                                    : Greek-PGS
Language                                 : Greek
Default                                  : No
Forced                                   : No

Text #13
ID                                       : 16
Format                                   : PGS
Muxing mode                              : zlib
Codec ID                                 : S_HDMV/PGS
Codec ID/Info                            : Picture based subtitle format used on BDs/HD-DVDs
Duration                                 : 2 h 10 min
Bit rate                                 : 15.5 kb/s
Count of elements                        : 1760
Stream size                              : 14.5 MiB (0%)
Title                                    : Turkish-PGS
Language                                 : Turkish
Default                                  : No
Forced                                   : No

Text #14
ID                                       : 17
Format                                   : PGS
Muxing mode                              : zlib
Codec ID                                 : S_HDMV/PGS
Codec ID/Info                            : Picture based subtitle format used on BDs/HD-DVDs
Duration                                 : 2 h 3 min
Bit rate                                 : 37.4 kb/s
Count of elements                        : 3305
Stream size                              : 33.0 MiB (0%)
Title                                    : Japanese-PGS
Language                                 : Japanese
Default                                  : No
Forced                                   : No

Menu
00:00:00.000                             : en:Chapter 1
00:05:05.054                             : en:Chapter 2
00:10:26.792                             : en:Chapter 3
00:19:48.854                             : en:Chapter 4
00:27:46.456                             : en:Chapter 5
00:32:40.458                             : en:Chapter 6
00:38:04.490                             : en:Chapter 7
00:44:02.097                             : en:Chapter 8
00:51:08.648                             : en:Chapter 9
00:58:17.869                             : en:Chapter 10
01:02:08.558                             : en:Chapter 11
01:08:57.967                             : en:Chapter 12
01:13:36.537                             : en:Chapter 13
01:16:59.072                             : en:Chapter 14
01:26:57.003                             : en:Chapter 15
01:36:30.993                             : en:Chapter 16
01:43:37.794                             : en:Chapter 17
01:49:51.459                             : en:Chapter 18
01:53:44.734                             : en:Chapter 19
02:01:50.094                             : en:Chapter 20







1 个附件 售价 大小 下载 时间

Snow.White.and.the.Huntsman.2012.EXTENDED.2160p.BluRay.x265.10bit.SDR.DTS-X.7.1-SWTYBLZ[btbtt.me].torrent 0 金币 71.20K 1428 次 11月前

#1楼
发帖时间:2018-01-12 20:44:26   |   回复数:3
911degrees
隐世仙人♂
非常感谢,谢谢分享
11月前 #2楼
liyouchai
超凡入圣№
谢谢楼主分享资源
11月前 #3楼
blue23
隐世仙人♂
感谢楼主分享
11月前 #4楼
游客组