aoloffline
版主

[2017] [欧美] [纪录] [WEB-1080P] [BT下载]大卫·鲍伊:最后五年 2017.1080p.AMZN.WEBRip.DDP2.0.x264-monkee 6.2GB

-->

David.Bowie.The.Last.Five.Years.2017.1080p.AMZN.WEBRip.DDP2.0.x264-monkee

◎译  名 大卫·鲍伊:最后五年

◎片  名 David Bowie: The Last Five Years

◎年  代 2017

◎产  地 英国

◎类  别 纪录片

◎语  言 英语

◎上映日期 2017-01-07

◎IMDb评分  7.2/10 from 1,365 users

◎IMDb链接  http://www.imdb.com/title/tt6375308/

◎豆瓣评分 9.4/10 from 207 users

◎豆瓣链接 https://movie.douban.com/subject/26946426/

◎BT之家整理 http://www.btbtt.co

◎片  长 90分钟

◎导  演 Francis Whately

◎主  演 大卫·鲍伊 David Bowie


◎简  介


  A documentary about David Bowie's final two albums "The Next Day" (2013) and "Blackstar" (2016) and Broadway musical "Lazarus".


Video
ID                                       : 1
Format                                   : AVC
Format/Info                              : Advanced Video Codec
Format profile                           : High@L4
Format settings                          : CABAC / 4 Ref Frames
Format settings, CABAC                   : Yes
Format settings, ReFrames                : 4 frames
Codec ID                                 : V_MPEG4/ISO/AVC
Duration                                 : 1 h 33 min
Bit rate mode                            : Variable
Bit rate                                 : 9 124 kb/s
Maximum bit rate                         : 15.0 Mb/s
Width                                    : 1 920 pixels
Height                                   : 1 080 pixels
Display aspect ratio                     : 16:9
Frame rate mode                          : Constant
Frame rate                               : 23.976 (24000/1001) FPS
Color space                              : YUV
Chroma subsampling                       : 4:2:0
Bit depth                                : 8 bits
Scan type                                : Progressive
Bits/(Pixel*Frame)                       : 0.184
Stream size                              : 5.98 GiB (96%)
Default                                  : Yes
Forced                                   : No
Color range                              : Limited
Color primaries                          : BT.709
Transfer characteristics                 : BT.709
Matrix coefficients                      : BT.709
Statistics Tags Issue                    : mkvmerge v12.0.0 (\'Trust / Lust\') 64bit 2018-01-09 03:57:35 / mkvmerge v12.0.0 (\'Trust / Lust\') 64bit 
FromStats_BitRate                        : 9311448
FromStats_Duration                       : 01:33:48.581000000
FromStats_FrameCount                     : 134951
FromStats_StreamSize                     : 6551280166

Audio
ID                                       : 2
Format                                   : E-AC-3
Format/Info                              : Enhanced Audio Coding 3
Codec ID                                 : A_EAC3
Duration                                 : 1 h 33 min
Bit rate mode                            : Constant
Bit rate                                 : 224 kb/s
Channel(s)                               : 2 channels
Channel positions                        : Front: L R
Sampling rate                            : 48.0 kHz
Frame rate                               : 187.500 FPS (256 SPF)
Compression mode                         : Lossy
Delay relative to video                  : 22 ms
Stream size                              : 150 MiB (2%)
Language                                 : English
Service kind                             : Complete Main
Default                                  : Yes
Forced                                   : No
Statistics Tags Issue                    : mkvmerge v12.0.0 (\'Trust / Lust\') 64bit 2018-01-09 03:57:35 / mkvmerge v12.0.0 (\'Trust / Lust\') 64bit 
FromStats_BitRate                        : 224000
FromStats_Duration                       : 01:33:48.480000000
FromStats_FrameCount                     : 175890
FromStats_StreamSize                     : 157597440

Text #1
ID                                       : 3
Format                                   : UTF-8
Codec ID                                 : S_TEXT/UTF8
Codec ID/Info                            : UTF-8 Plain Text
Language                                 : English
Default                                  : No
Forced                                   : No
Statistics Tags Issue                    : mkvmerge v12.0.0 (\'Trust / Lust\') 64bit 2018-01-09 03:57:35 / mkvmerge v12.0.0 (\'Trust / Lust\') 64bit 
FromStats_BitRate                        : 87
FromStats_Duration                       : 01:32:30.332000000
FromStats_FrameCount                     : 2135
FromStats_StreamSize                     : 60439

Text #2
ID                                       : 4
Format                                   : UTF-8
Codec ID                                 : S_TEXT/UTF8
Codec ID/Info                            : UTF-8 Plain Text
Title                                    : SDH
Language                                 : English
Default                                  : No
Forced                                   : No
Statistics Tags Issue                    : mkvmerge v12.0.0 (\'Trust / Lust\') 64bit 2018-01-09 03:57:35 / mkvmerge v12.0.0 (\'Trust / Lust\') 64bit 
FromStats_BitRate                        : 89
FromStats_Duration                       : 01:32:48.166000000
FromStats_FrameCount                     : 2235
FromStats_StreamSize                     : 62549





1 个附件 售价 大小 下载 时间

David.Bowie.The.Last.Five.Years.2017.1080p.AMZN.WEBRip.DDP2.0.x264-monkee[btbtt.me].torrent 0 金币 63.07K 602 次 7天前

#1楼
发帖时间:2018-01-13 11:30:44   |   回复数:3
blue23
隐世仙人♂
感谢楼主分享
6天前 #2楼
911degrees
超凡入圣№
非常感谢,谢谢分享
6天前 #3楼
liyouchai
超凡入圣№
谢谢楼主分享资源
6天前 #4楼
游客组