aoloffline
版主

[2015] [欧美] [纪录] [WEB-1080P] [BT下载]Roseanne.for.President.2015.1080p.HULU.WEBRip.AAC2.0.x264-QOQ 3.8GB

-->

Roseanne.for.President.2015.1080p.HULU.WEBRip.AAC2.0.x264-QOQ

◎译  名 

◎片  名 Roseanne for President!

◎年  代 2016

◎产  地 美国

◎类  别 喜剧/传记/纪录片

◎语  言 英语

◎上映日期 2016-07-01

◎IMDb评分  5.0/10 from 56 users

◎IMDb链接  http://www.imdb.com/title/tt3791268/

◎BT之家整理 http://www.btbtt.co

◎片  长 96分钟

◎导  演 Eric Weinrib

◎主  演 罗西妮·巴尔 Roseanne Barr

      迈克尔·摩尔 Michael Moore

      罗茜·欧唐内 Rosie O'Donnell


◎简  介


  Comedian Roseanne Barr embarks on the most off-the-rails presidential campaign in U.S. history. What begins as a political journey becomes a raw and revealing portrait of a comedic icon.



Video
ID                                       : 1
Format                                   : AVC
Format/Info                              : Advanced Video Codec
Format profile                           : High@L4
Format settings                          : CABAC / 4 Ref Frames
Format settings, CABAC                   : Yes
Format settings, ReFrames                : 4 frames
Codec ID                                 : V_MPEG4/ISO/AVC
Duration                                 : 1 h 36 min
Bit rate                                 : 5 546 kb/s
Width                                    : 1 920 pixels
Height                                   : 1 080 pixels
Display aspect ratio                     : 16:9
Frame rate mode                          : Constant
Frame rate                               : 23.976 FPS
Color space                              : YUV
Chroma subsampling                       : 4:2:0
Bit depth                                : 8 bits
Scan type                                : Progressive
Bits/(Pixel*Frame)                       : 0.112
Stream size                              : 3.76 GiB (99%)
Default                                  : Yes
Forced                                   : No

Audio
ID                                       : 2
Format                                   : AAC
Format/Info                              : Advanced Audio Codec
Format profile                           : HE-AAC / LC
Format settings                          : Explicit
Codec ID                                 : A_AAC-2
Duration                                 : 1 h 36 min
Bit rate                                 : 64.0 kb/s
Channel(s)                               : 2 channels
Channel positions                        : Front: L R
Sampling rate                            : 48.0 kHz / 24.0 kHz
Frame rate                               : 23.438 FPS (1024 SPF)
Compression mode                         : Lossy
Stream size                              : 44.4 MiB (1%)
Default                                  : Yes
Forced                                   : No

Text
ID                                       : 3
Format                                   : UTF-8
Codec ID                                 : S_TEXT/UTF8
Codec ID/Info                            : UTF-8 Plain Text
Duration                                 : 1 h 36 min
Bit rate                                 : 95 b/s
Count of elements                        : 1898
Stream size                              : 67.9 KiB (0%)
Language                                 : English
Default                                  : No
Forced                                   : No




1 个附件 售价 大小 下载 时间

Roseanne.for.President.2015.1080p.HULU.WEBRip.AAC2.0.x264-QOQ[btbtt.me].torrent 0 金币 76.56K 532 次 9月前

#1楼
发帖时间:2018-01-13 11:32:40   |   回复数:3
blue23
隐世仙人♂
感谢楼主分享
9月前 #2楼
911degrees
隐世仙人♂
非常感谢,谢谢分享
9月前 #3楼
liyouchai
超凡入圣№
谢谢楼主分享资源
9月前 #4楼
游客组