aoloffline
版主

[2016] [欧美] [喜剧] [WEB-1080P] [BT下载]第二性 Second.Nature.2016.1080p.WEB-DL.DD5.1.H264-FGT 3.13GB

-->

Second.Nature.2016.1080p.WEB-DL.DD5.1.H264-FGT

◎译  名 第二性

◎片  名 Second Nature

◎年  代 2016

◎产  地 美国

◎类  别 喜剧

◎语  言 英语

◎上映日期 2016-11-10

◎IMDb评分  6.2/10 from 151 users

◎IMDb链接  http://www.imdb.com/title/tt5126654/

◎BT之家整理 http://www.btbtt.co

◎片  长 80分钟

◎导  演 Michael Cross

◎主  演 科莱特·沃夫 Collette Wolfe

      萨姆·亨廷顿 Sam Huntington

      Carollani Sandberg

      Carolyn Cox

      赖利·沙纳汉 Riley Shanahan


◎简  介


  When mayoral candidate Amanda (Collette Wolfe - INTERSTELLAR| HOT TUB TIME MACHINE) uses a magic mirror to reverse the gender roles in her small town| she gains theupper hand on her womanizing opponent| Bret (Sam Huntington - SUPERMAN RETURNS| SULLY). As each experiences life in the other's shoes| they must decide which realitythey prefer before they're stuck in the flipped world forever.


Video
ID                                       : 1
Format                                   : AVC
Format/Info                              : Advanced Video Codec
Format profile                           : High@L4
Format settings                          : CABAC / 4 Ref Frames
Format settings, CABAC                   : Yes
Format settings, ReFrames                : 4 frames
Codec ID                                 : V_MPEG4/ISO/AVC
Duration                                 : 1 h 20 min
Bit rate                                 : 5 210 kb/s
Width                                    : 1 920 pixels
Height                                   : 1 080 pixels
Display aspect ratio                     : 16:9
Frame rate mode                          : Constant
Frame rate                               : 23.976 FPS
Color space                              : YUV
Chroma subsampling                       : 4:2:0
Bit depth                                : 8 bits
Scan type                                : Progressive
Bits/(Pixel*Frame)                       : 0.105
Stream size                              : 2.92 GiB (93%)
Title                                    : Second.Nature.2016.1080p.WEB-DL.DD5.1.H264-FGT
Language                                 : English
Default                                  : Yes
Forced                                   : No
Color range                              : Limited
Color primaries                          : BT.709
Transfer characteristics                 : BT.709
Matrix coefficients                      : BT.709

Audio
ID                                       : 2
Format                                   : AC-3
Format/Info                              : Audio Coding 3
Codec ID                                 : A_AC3
Duration                                 : 1 h 20 min
Bit rate mode                            : Constant
Bit rate                                 : 384 kb/s
Channel(s)                               : 6 channels
Channel positions                        : Front: L C R, Side: L R, LFE
Sampling rate                            : 48.0 kHz
Frame rate                               : 31.250 FPS (1536 SPF)
Bit depth                                : 16 bits
Compression mode                         : Lossy
Stream size                              : 220 MiB (7%)
Title                                    : Second.Nature.2016.1080p.WEB-DL.DD5.1.H264-FGT
Language                                 : English
Service kind                             : Complete Main
Default                                  : Yes
Forced                                   : No

Menu
00:00:00.000                             : en:1
00:11:36.529                             : en:2
00:21:07.474                             : en:3
00:30:59.232                             : en:4
00:39:37.374                             : en:5
00:50:28.691                             : en:6
01:00:38.174                             : en:7
01:14:53.195                             : en:8





1 个附件 售价 大小 下载 时间

Second.Nature.2016.1080p.WEB-DL.DD5.1.H264-FGT[btbtt.me].torrent 0 金币 63.15K 1201 次 9月前

#1楼
发帖时间:2018-01-13 11:34:17   |   回复数:3
blue23
隐世仙人♂
感谢楼主分享
9月前 #2楼
911degrees
隐世仙人♂
非常感谢,谢谢分享
9月前 #3楼
liyouchai
超凡入圣№
谢谢楼主分享资源
9月前 #4楼
游客组