aoloffline
版主

[2013] [欧美] [科幻] [WEB-1080P] [BT下载]末日浩劫 The.Last.Days.2013.1080p.NF.WEBRip.DD5.1.x264-SiGMA 3.3GB

-->

The.Last.Days.2013.1080p.NF.WEBRip.DD5.1.x264-SiGMA

◎译  名 末日浩劫/幽闭末日/末日/最后的日子

◎片  名 Los últimos días

◎年  代 2013

◎产  地 西班牙/法国

◎类  别 科幻/惊悚/冒险/灾难

◎语  言 西班牙语/加泰罗尼亚语

◎上映日期 2013-03-27(西班牙)/2014-12-26(中国大陆)

◎IMDb评分  6.2/10 from 6,497 users

◎IMDb链接  http://www.imdb.com/title/tt1935914/

◎豆瓣评分 5.5/10 from 2,461 users

◎豆瓣链接 https://movie.douban.com/subject/19976260/

◎BT之家整理 http://www.btbtt.co

◎片  长 102分钟

◎导  演 大卫·帕斯特尔 David Pastor / 亚历克斯·帕斯特尔 Àlex Pastor

◎主  演 奎姆·古铁雷兹 Quim Gutiérrez

      何塞·科罗纳 José Coronado

      玛塔·埃图娜 Marta Etura

      拉蒂西亚·多瑞拉 Leticia Dolera

      米克尔·伊格莱西亚斯 Mikel Iglesias

      伊万·马萨戈 Ivan Massagué

      佩雷·文图拉 Pere Ventura

      路易斯·索莱尔 Lluís Soler

      阿卜杜勒拉蒂夫·哈威达尔 Abdelatif Hwidar

      法拉·哈米德 Farah Hamed

      莉莉·莫雷特 Lily Morett

      伊萨克·费里 Isak Férriz

      佩雷·布拉索 Pere Brasó

      莫莫·巴列斯特罗斯 Momo Ballesteros

      阿尔伯特·普拉特 Albert Prat


◎简  介


  时为2013年,世界各地突然被死神的阴影所笼罩。凡是身处开放空间的人类,无一例外将丧失宝贵生命。外表俊朗的马克(奎姆·古铁雷兹 Quim Gutiérrez 饰)是一条生活在巴塞罗那的苦闷程序狗,上司埃里克(José Coronado  饰)不近人情的苛刻要求压得他早已喘不过气来,而与美丽女友朱莉娅(玛塔·埃图 娜 Marta Etura 饰)的关系似乎也进入了瓶颈期。灾难降临后,马克和其他人被困在某栋建筑物内长达三个月。担心女友的安全,他决定铤而走险离开这个绝地。马克与持有GPS的埃里克携手,穿越重重危险向外行进。

  繁华的大都市,人们却早已习惯自我囚禁在隔绝的空间内,而宁愿丧失与他人交流的能力。幡然醒悟,为时已晚……


◎获奖情况


  第28届西班牙戈雅奖  (2014)

  最佳特效(提名) Lluís Rivera / Juan Manuel Nogales

  最佳制作人(提名) Josep Amorós



Video
ID                                       : 1
Format                                   : AVC
Format/Info                              : Advanced Video Codec
Format profile                           : Main@L4
Format settings                          : CABAC / 3 Ref Frames
Format settings, CABAC                   : Yes
Format settings, ReFrames                : 3 frames
Codec ID                                 : V_MPEG4/ISO/AVC
Duration                                 : 1 h 42 min
Bit rate mode                            : Variable
Bit rate                                 : 4 220 kb/s
Maximum bit rate                         : 6 330 kb/s
Width                                    : 1 920 pixels
Height                                   : 1 080 pixels
Display aspect ratio                     : 16:9
Frame rate mode                          : Constant
Frame rate                               : 23.976 (24000/1001) FPS
Color space                              : YUV
Chroma subsampling                       : 4:2:0
Bit depth                                : 8 bits
Scan type                                : Progressive
Bits/(Pixel*Frame)                       : 0.085
Stream size                              : 3.02 GiB (92%)
Writing library                          : x264 core 118
Encoding settings                        : cabac=1 / ref=3 / deblock=1:0:0 / analyse=0x1:0x111 / me=umh / subme=10 / psy=1 / psy_rd=1.00:0.00 / mixed_ref=1 / me_range=24 / chroma_me=1 / trellis=2 / 8x8dct=0 / cqm=0 / deadzone=21,11 / fast_pskip=1 / chroma_qp_offset=-2 / threads=8 / sliced_threads=0 / nr=0 / decimate=1 / interlaced=0 / bluray_compat=0 / constrained_intra=0 / bframes=2 / b_pyramid=0 / b_adapt=2 / b_bias=0 / direct=3 / weightb=1 / open_gop=0 / weightp=2 / keyint=48 / keyint_min=25 / scenecut=0 / intra_refresh=0 / rc_lookahead=0 / rc=2pass / mbtree=1 / bitrate=4220 / ratetol=1.0 / qcomp=0.50 / qpmin=6 / qpmax=51 / qpstep=4 / cplxblur=20.0 / qblur=0.5 / vbv_maxrate=6330 / vbv_bufsize=8440 / nal_hrd=vbr / ip_ratio=1.40 / aq=1:1.00
Default                                  : Yes
Forced                                   : No

Audio
ID                                       : 2
Format                                   : AC-3
Format/Info                              : Audio Coding 3
Codec ID                                 : A_AC3
Duration                                 : 1 h 42 min
Bit rate mode                            : Constant
Bit rate                                 : 384 kb/s
Channel(s)                               : 6 channels
Channel positions                        : Front: L C R, Side: L R, LFE
Sampling rate                            : 48.0 kHz
Frame rate                               : 31.250 FPS (1536 SPF)
Bit depth                                : 16 bits
Compression mode                         : Lossy
Stream size                              : 282 MiB (8%)
Language                                 : Spanish
Service kind                             : Complete Main
Default                                  : Yes
Forced                                   : No

Text #1
ID                                       : 3
Format                                   : UTF-8
Codec ID                                 : S_TEXT/UTF8
Codec ID/Info                            : UTF-8 Plain Text
Duration                                 : 1 h 33 min
Bit rate                                 : 27 b/s
Count of elements                        : 783
Stream size                              : 18.9 KiB (0%)
Language                                 : English
Default                                  : No
Forced                                   : No

Text #2
ID                                       : 4
Format                                   : UTF-8
Codec ID                                 : S_TEXT/UTF8
Codec ID/Info                            : UTF-8 Plain Text
Duration                                 : 1 h 34 min
Bit rate                                 : 33 b/s
Count of elements                        : 869
Stream size                              : 23.1 KiB (0%)
Language                                 : Spanish
Default                                  : No
Forced                                   : No





1 个附件 售价 大小 下载 时间

The.Last.Days.2013.1080p.NF.WEBRip.DD5.1.x264-SiGMA[btbtt.me].torrent 0 金币 66.50K 1239 次 6月前

#1楼
发帖时间:2018-01-13 11:37:46   |   回复数:3
blue23
隐世仙人♂
感谢楼主分享
6月前 #2楼
911degrees
隐世仙人♂
非常感谢,谢谢分享
6月前 #3楼
liyouchai
超凡入圣№
谢谢楼主分享资源
6月前 #4楼
游客组