aoloffline
版主

[更 早] [欧美] [恐怖] [BD-1080P] [BT下载]超级终结者 Class.of.1999.1990.1080p.BluRay.x264.DTS-FGT 8.48GB

-->

Class.of.1999.1990.1080p.BluRay.x264.DTS-FGT

◎译  名 超级终结者/铁甲学堂1999

◎片  名 Class of 1999

◎年  代 1990

◎产  地 美国

◎类  别 动作/剧情/奇幻/恐怖/科幻

◎语  言 英语

◎上映日期 1990-05-11

◎豆瓣评分 7.0/10 from 112 users

◎豆瓣链接 https://movie.douban.com/subject/1306900/

◎片  长 99 分钟

◎导  演 马克 L. 莱斯特 (Mark L. Lester)

◎主  演 布拉德利·格雷格 Bradley Gregg

      Traci Lind

      马尔科姆·麦克道威尔 Malcolm McDowell

      斯泰西·基齐 Stacy Keach

      帕姆·格里尔 Pam Grier


◎简  介


  已进入公元2000年,美国各地高中校园内暴力猖獗,少年各自拥枪自重,不时引发枪战。后经蓝福博士提供「铁腕教学」计画,青尔校长采用蓝福设计的人形机器教师,分别是哈丁、普莱先生和康纳小姐,皆具备文武兼修的精密程式。三位机器人老师,对付顽劣的学生生辄动拳脚交加,未几便立威服众。一日,学生桑尼吸食毒品被哈丁撞见,桑尼拔枪欲反抗,激怒哈丁,遭他下重手取了性命,此事为寇迪窥见。哈丁的密秘寇迪识破,他与普莱、康莱联手施反间计,杀害寇迪寇迪胞弟挑起帮派火拚、借刀杀人。


Video
ID                                       : 1
Format                                   : AVC
Format/Info                              : Advanced Video Codec
Format profile                           : High@L4.1
Format settings                          : CABAC / 4 Ref Frames
Format settings, CABAC                   : Yes
Format settings, ReFrames                : 4 frames
Codec ID                                 : V_MPEG4/ISO/AVC
Duration                                 : 1 h 36 min
Bit rate                                 : 11.5 Mb/s
Width                                    : 1 920 pixels
Height                                   : 1 040 pixels
Display aspect ratio                     : 1.85:1
Frame rate mode                          : Constant
Frame rate                               : 23.976 (24000/1001) FPS
Color space                              : YUV
Chroma subsampling                       : 4:2:0
Bit depth                                : 8 bits
Scan type                                : Progressive
Bits/(Pixel*Frame)                       : 0.240
Stream size                              : 7.46 GiB (88%)
Title                                    : Class.of.1999.1990.1080p.BluRay.x264.DTS-FGT
Writing library                          : x264 core 148 r2795M aaa9aa8
Encoding settings                        : cabac=1 / ref=4 / deblock=1:-2:-2 / analyse=0x3:0x113 / me=umh / subme=9 / psy=1 / psy_rd=1.00:0.15 / mixed_ref=1 / me_range=16 / chroma_me=1 / trellis=2 / 8x8dct=1 / cqm=0 / deadzone=21,11 / fast_pskip=1 / chroma_qp_offset=-3 / threads=24 / lookahead_threads=3 / sliced_threads=0 / nr=0 / decimate=1 / interlaced=0 / bluray_compat=0 / constrained_intra=0 / bframes=3 / b_pyramid=2 / b_adapt=2 / b_bias=0 / direct=3 / weightb=1 / open_gop=0 / weightp=2 / keyint=250 / keyint_min=25 / scenecut=40 / intra_refresh=0 / rc_lookahead=50 / rc=abr / mbtree=1 / bitrate=11500 / ratetol=1.0 / qcomp=0.60 / qpmin=0 / qpmax=69 / qpstep=4 / vbv_maxrate=31250 / vbv_bufsize=31250 / nal_hrd=none / filler=0 / ip_ratio=1.40 / aq=1:1.00
Language                                 : English
Default                                  : Yes
Forced                                   : No

Audio
ID                                       : 2
Format                                   : DTS
Format/Info                              : Digital Theater Systems
Codec ID                                 : A_DTS
Duration                                 : 1 h 36 min
Bit rate mode                            : Constant
Bit rate                                 : 1 509 kb/s
Channel(s)                               : 2 channels
Channel positions                        : Front: L R
Sampling rate                            : 48.0 kHz
Frame rate                               : 93.750 FPS (512 SPF)
Bit depth                                : 24 bits
Compression mode                         : Lossy
Stream size                              : 1.01 GiB (12%)
Title                                    : Class.of.1999.1990.1080p.BluRay.x264.DTS-FGT
Language                                 : English
Default                                  : Yes
Forced                                   : No

Text
ID                                       : 3
Format                                   : UTF-8
Codec ID                                 : S_TEXT/UTF8
Codec ID/Info                            : UTF-8 Plain Text
Duration                                 : 1 h 29 min
Bit rate                                 : 46 b/s
Count of elements                        : 1058
Stream size                              : 30.5 KiB (0%)
Language                                 : English
Default                                  : Yes
Forced                                   : No

Menu
00:00:00.000                             : en:Chapter 01
00:10:02.059                             : en:Chapter 02
00:15:00.274                             : en:Chapter 03
00:25:35.116                             : en:Chapter 04
00:31:54.162                             : en:Chapter 05
00:39:31.702                             : en:Chapter 06
00:49:29.049                             : en:Chapter 07
00:56:26.216                             : en:Chapter 08
01:04:49.552                             : en:Chapter 09
01:12:37.603                             : en:Chapter 10
01:20:21.942                             : en:Chapter 11
01:31:39.285                             : en:Chapter 12





1 个附件 售价 大小 下载 时间

Class.of.1999.1990.1080p.BluRay.x264.DTS-FGT[btbtt.me].torrent 0 金币 85.31K 931 次 8月前

#1楼
发帖时间:2018-02-07 11:23:31   |   回复数:3
liyouchai
超凡入圣№
谢谢楼主分享资源
8月前 #2楼
blue23
隐世仙人♂
感谢楼主分享
8月前 #3楼
jokingcheung
一代宗师
谢谢分享
8月前 #4楼
游客组