aoloffline
版主

[2014] [欧美] [纪录] [BD-Remux] [BT下载]南极3D:在边缘 2014.DOCU.2160p.BluRay.REMUX.AVC.DTS-FGT 17GB

-->

Antarctica.On.the.Edge.2014.DOCU.2160p.BluRay.REMUX.AVC.DTS-HD.MA.5.1-FGT

◎译  名 南极3D:在边缘

◎片  名 Antarctica 3D: On the Edge

◎年  代 2014

◎产  地 美国

◎类  别 纪录片/短片

◎语  言 英语

◎上映日期 2014-10-19(美国)

◎BT之家整理 http://www.btbtt.co 

◎片  长 40分钟

◎导  演 Jon Bowermaster

◎主  演 Tilda Swinton


◎简  介


  Antarctica lives in our dreams as the most remote| the most forbidding continent on Planet Earth. It is a huge land covered with ice as thick as three miles|seemingly invulnerable| cold and dark for eight months of the year. Yet Antarctica is also a fragile place| home to an incredible variety of life along its edges|arguably the most stunning| breathtaking and still-pristine place on earth. The one constant is that it is constantly changing| every season| every day| every hour.I've been fortunate to travel to Antarctica many times; most recently with 3D cameras| a first for the continent. The result is our new film| Antarctica: On theEdge.


Video
ID                                       : 1
Format                                   : HEVC
Format/Info                              : High Efficiency Video Coding
Format profile                           : Main 10@L5.1@High
Codec ID                                 : V_MPEGH/ISO/HEVC
Duration                                 : 36 min 45 s
Bit rate                                 : 63.0 Mb/s
Width                                    : 3 840 pixels
Height                                   : 2 160 pixels
Display aspect ratio                     : 16:9
Frame rate mode                          : Constant
Frame rate                               : 23.976 (24000/1001) FPS
Color space                              : YUV
Chroma subsampling                       : 4:2:0
Bit depth                                : 10 bits
Bits/(Pixel*Frame)                       : 0.317
Stream size                              : 16.2 GiB (93%)
Title                                    : Antarctica.On.the.Edge.2014.2160p.BluRay.REMUX.AVC.DTS-HD.MA.5.1-FGT
Writing library                          : ATEME Titan KFE 3.7.3 (4.7.3.1003)
Default                                  : Yes
Forced                                   : No
Color range                              : Limited
Color primaries                          : BT.709
Transfer characteristics                 : BT.709
Matrix coefficients                      : BT.709

Audio #1
ID                                       : 2
Format                                   : DTS
Format/Info                              : Digital Theater Systems
Format profile                           : MA / Core
Codec ID                                 : A_DTS
Duration                                 : 36 min 45 s
Bit rate mode                            : Variable / Constant
Bit rate                                 : 4 117 kb/s / 1 509 kb/s
Channel(s)                               : 6 channels
Channel positions                        : Front: L C R, Side: L R, LFE
Sampling rate                            : 48.0 kHz
Frame rate                               : 93.750 FPS (512 SPF)
Bit depth                                : 24 bits
Compression mode                         : Lossless / Lossy
Stream size                              : 1.06 GiB (6%)
Title                                    : Antarctica.On.the.Edge.2014.2160p.BluRay.REMUX.AVC.DTS-HD.MA.5.1-FGT
Language                                 : English
Default                                  : Yes
Forced                                   : No

Audio #2
ID                                       : 3
Format                                   : DTS
Format/Info                              : Digital Theater Systems
Codec ID                                 : A_DTS
Duration                                 : 36 min 45 s
Bit rate mode                            : Constant
Bit rate                                 : 768 kb/s
Channel(s)                               : 6 channels
Channel positions                        : Front: L C R, Side: L R, LFE
Sampling rate                            : 48.0 kHz
Frame rate                               : 93.750 FPS (512 SPF)
Bit depth                                : 24 bits
Compression mode                         : Lossy
Stream size                              : 202 MiB (1%)
Title                                    : Antarctica.On.the.Edge.2014.2160p.BluRay.REMUX.AVC.DTS-HD.MA.5.1-FGT
Language                                 : French
Default                                  : No
Forced                                   : No

Text #1
ID                                       : 4
Format                                   : PGS
Muxing mode                              : zlib
Codec ID                                 : S_HDMV/PGS
Codec ID/Info                            : Picture based subtitle format used on BDs/HD-DVDs
Duration                                 : 32 min 54 s
Bit rate                                 : 42.0 kb/s
Count of elements                        : 738
Stream size                              : 9.89 MiB (0%)
Title                                    : English-PGS
Language                                 : English
Default                                  : Yes
Forced                                   : No

Text #2
ID                                       : 5
Format                                   : PGS
Muxing mode                              : zlib
Codec ID                                 : S_HDMV/PGS
Codec ID/Info                            : Picture based subtitle format used on BDs/HD-DVDs
Duration                                 : 35 min 35 s
Bit rate                                 : 40.1 kb/s
Count of elements                        : 726
Stream size                              : 10.2 MiB (0%)
Title                                    : French-PGS
Language                                 : French
Default                                  : No
Forced                                   : No

Text #3
ID                                       : 6
Format                                   : PGS
Muxing mode                              : zlib
Codec ID                                 : S_HDMV/PGS
Codec ID/Info                            : Picture based subtitle format used on BDs/HD-DVDs
Duration                                 : 35 min 35 s
Bit rate                                 : 35.5 kb/s
Count of elements                        : 720
Stream size                              : 9.03 MiB (0%)
Title                                    : Danish-PGS
Language                                 : Danish
Default                                  : No
Forced                                   : No

Text #4
ID                                       : 7
Format                                   : PGS
Muxing mode                              : zlib
Codec ID                                 : S_HDMV/PGS
Codec ID/Info                            : Picture based subtitle format used on BDs/HD-DVDs
Duration                                 : 35 min 35 s
Bit rate                                 : 38.8 kb/s
Count of elements                        : 724
Stream size                              : 9.87 MiB (0%)
Title                                    : Dutch-PGS
Language                                 : Dutch
Default                                  : No
Forced                                   : No

Text #5
ID                                       : 8
Format                                   : PGS
Muxing mode                              : zlib
Codec ID                                 : S_HDMV/PGS
Codec ID/Info                            : Picture based subtitle format used on BDs/HD-DVDs
Duration                                 : 35 min 35 s
Bit rate                                 : 36.7 kb/s
Count of elements                        : 722
Stream size                              : 9.33 MiB (0%)
Title                                    : Finnish-PGS
Language                                 : Finnish
Default                                  : No
Forced                                   : No

Text #6
ID                                       : 9
Format                                   : PGS
Muxing mode                              : zlib
Codec ID                                 : S_HDMV/PGS
Codec ID/Info                            : Picture based subtitle format used on BDs/HD-DVDs
Duration                                 : 35 min 35 s
Bit rate                                 : 43.7 kb/s
Count of elements                        : 746
Stream size                              : 11.1 MiB (0%)
Title                                    : German-PGS
Language                                 : German
Default                                  : No
Forced                                   : No

Text #7
ID                                       : 10
Format                                   : PGS
Muxing mode                              : zlib
Codec ID                                 : S_HDMV/PGS
Codec ID/Info                            : Picture based subtitle format used on BDs/HD-DVDs
Duration                                 : 35 min 35 s
Bit rate                                 : 36.6 kb/s
Count of elements                        : 722
Stream size                              : 9.30 MiB (0%)
Title                                    : Norwegian-PGS
Language                                 : Norwegian
Default                                  : No
Forced                                   : No

Text #8
ID                                       : 11
Format                                   : PGS
Muxing mode                              : zlib
Codec ID                                 : S_HDMV/PGS
Codec ID/Info                            : Picture based subtitle format used on BDs/HD-DVDs
Duration                                 : 35 min 35 s
Bit rate                                 : 36.9 kb/s
Count of elements                        : 720
Stream size                              : 9.38 MiB (0%)
Title                                    : Swedish-PGS
Language                                 : Swedish
Default                                  : No
Forced                                   : No

Menu
00:00:00.000                             : en:Chapter 1
00:02:31.734                             : en:Chapter 2
00:03:27.832                             : en:Chapter 3
00:05:08.308                             : en:Chapter 4
00:07:06.717                             : en:Chapter 5
00:08:50.780                             : en:Chapter 6
00:11:35.111                             : en:Chapter 7
00:13:09.205                             : en:Chapter 8
00:14:23.487                             : en:Chapter 9
00:15:53.661                             : en:Chapter 10
00:18:25.020                             : en:Chapter 11
00:19:22.786                             : en:Chapter 12
00:20:52.876                             : en:Chapter 13
00:22:28.347                             : en:Chapter 14
00:25:37.619                             : en:Chapter 15
00:27:12.047                             : en:Chapter 16
00:29:59.839                             : en:Chapter 17
00:33:41.894                             : en:Chapter 18





1 个附件 售价 大小 下载 时间

Antarctica.On.the.Edge.2014.DOCU.2160p.BluRay.REMUX.AVC.DTS-HD.MA.5.1-FGT[btbtt.me].torrent 0 金币 87.83K 1526 次 6月前

#1楼
发帖时间:2018-02-13 15:26:28   |   回复数:4
liyouchai
超凡入圣№
谢谢楼主分享资源
6月前 #2楼
blue23
隐世仙人♂
感谢楼主分享
6月前 #3楼
911degrees
隐世仙人♂
非常感谢,谢谢分享
5月前 #4楼
jokingcheung
一代宗师
谢谢分享
5月前 #5楼
游客组