aoloffline
版主

[2013] [欧美] [纪录] [BD-Remux] [BT下载]大白鲨 2013.DOCU.2160p.BluRay.REMUX.AVC.DTS-HD.MA.5.1-FGT 19GB

-->

Great.White.Shark.2013.DOCU.2160p.BluRay.REMUX.AVC.DTS-HD.MA.5.1-FGT

◎译  名 大白鲨

◎片  名 Great White Shark

◎年  代 2013

◎产  地 美国

◎类  别 纪录片

◎语  言 英语

◎上映日期 2013-05-24(美国)

◎BT之家整理 http://www.btbtt.co 

◎片  长 45分钟

◎导  演 Luke Cresswell / Steve McNicholas


◎简  介


  Misrepresented, maligned and on the verge of extinction, the great white shark is an iconic predator: the creature we love to fear. Great White Shark will explore the great white's place in our imaginations, in our fears and in the reality of its role at the top of the oceanic food chain. The film will concentrate on key aggregation points around the world: Mexico, South Africa, Los Angeles and New Zealand. Key figures in the history of shark research, people whose lives have been changed by contact with the great white, will tell us of their experiences, culminating in a direct encounter between man and shark.


Video
ID                                       : 1
Format                                   : HEVC
Format/Info                              : High Efficiency Video Coding
Format profile                           : Main 10@L5.1@High
Codec ID                                 : V_MPEGH/ISO/HEVC
Duration                                 : 40 min 35 s
Bit rate                                 : 63.0 Mb/s
Width                                    : 3 840 pixels
Height                                   : 2 160 pixels
Display aspect ratio                     : 16:9
Frame rate mode                          : Constant
Frame rate                               : 23.976 (24000/1001) FPS
Color space                              : YUV
Chroma subsampling                       : 4:2:0
Bit depth                                : 10 bits
Bits/(Pixel*Frame)                       : 0.317
Stream size                              : 17.8 GiB (93%)
Title                                    : Great.White.Shark.2013.2160p.BluRay.REMUX.AVC.DTS-HD.MA.5.1-FGT
Writing library                          : ATEME Titan KFE 3.7.3 (4.7.3.1003)
Default                                  : Yes
Forced                                   : No
Color range                              : Limited
Color primaries                          : BT.709
Transfer characteristics                 : BT.709
Matrix coefficients                      : BT.709

Audio #1
ID                                       : 2
Format                                   : DTS
Format/Info                              : Digital Theater Systems
Format profile                           : MA / Core
Codec ID                                 : A_DTS
Duration                                 : 40 min 35 s
Bit rate mode                            : Variable / Constant
Bit rate                                 : 4 111 kb/s / 1 509 kb/s
Channel(s)                               : 6 channels
Channel positions                        : Front: L C R, Side: L R, LFE
Sampling rate                            : 48.0 kHz
Frame rate                               : 93.750 FPS (512 SPF)
Bit depth                                : 24 bits
Compression mode                         : Lossless / Lossy
Stream size                              : 1.17 GiB (6%)
Title                                    : Great.White.Shark.2013.2160p.BluRay.REMUX.AVC.DTS-HD.MA.5.1-FGT
Language                                 : English
Default                                  : Yes
Forced                                   : No

Audio #2
ID                                       : 3
Format                                   : DTS
Format/Info                              : Digital Theater Systems
Codec ID                                 : A_DTS
Duration                                 : 40 min 33 s
Bit rate mode                            : Constant
Bit rate                                 : 768 kb/s
Channel(s)                               : 6 channels
Channel positions                        : Front: L C R, Side: L R, LFE
Sampling rate                            : 48.0 kHz
Frame rate                               : 93.750 FPS (512 SPF)
Bit depth                                : 24 bits
Compression mode                         : Lossy
Stream size                              : 223 MiB (1%)
Title                                    : Great.White.Shark.2013.2160p.BluRay.REMUX.AVC.DTS-HD.MA.5.1-FGT
Language                                 : French
Default                                  : No
Forced                                   : No

Text #1
ID                                       : 4
Format                                   : PGS
Muxing mode                              : zlib
Codec ID                                 : S_HDMV/PGS
Codec ID/Info                            : Picture based subtitle format used on BDs/HD-DVDs
Duration                                 : 37 min 58 s
Bit rate                                 : 49.0 kb/s
Count of elements                        : 892
Stream size                              : 13.3 MiB (0%)
Title                                    : English-PGS
Language                                 : English
Default                                  : Yes
Forced                                   : No

Text #2
ID                                       : 5
Format                                   : PGS
Muxing mode                              : zlib
Codec ID                                 : S_HDMV/PGS
Codec ID/Info                            : Picture based subtitle format used on BDs/HD-DVDs
Duration                                 : 40 min 0 s
Bit rate                                 : 44.0 kb/s
Count of elements                        : 752
Stream size                              : 12.6 MiB (0%)
Title                                    : French-PGS
Language                                 : French
Default                                  : No
Forced                                   : No

Text #3
ID                                       : 6
Format                                   : PGS
Muxing mode                              : zlib
Codec ID                                 : S_HDMV/PGS
Codec ID/Info                            : Picture based subtitle format used on BDs/HD-DVDs
Duration                                 : 40 min 0 s
Bit rate                                 : 39.6 kb/s
Count of elements                        : 750
Stream size                              : 11.3 MiB (0%)
Title                                    : Danish-PGS
Language                                 : Danish
Default                                  : No
Forced                                   : No

Text #4
ID                                       : 7
Format                                   : PGS
Muxing mode                              : zlib
Codec ID                                 : S_HDMV/PGS
Codec ID/Info                            : Picture based subtitle format used on BDs/HD-DVDs
Duration                                 : 40 min 0 s
Bit rate                                 : 42.1 kb/s
Count of elements                        : 746
Stream size                              : 12.0 MiB (0%)
Title                                    : Dutch-PGS
Language                                 : Dutch
Default                                  : No
Forced                                   : No

Text #5
ID                                       : 8
Format                                   : PGS
Muxing mode                              : zlib
Codec ID                                 : S_HDMV/PGS
Codec ID/Info                            : Picture based subtitle format used on BDs/HD-DVDs
Duration                                 : 40 min 0 s
Bit rate                                 : 41.6 kb/s
Count of elements                        : 748
Stream size                              : 11.9 MiB (0%)
Title                                    : Finnish-PGS
Language                                 : Finnish
Default                                  : No
Forced                                   : No

Text #6
ID                                       : 9
Format                                   : PGS
Muxing mode                              : zlib
Codec ID                                 : S_HDMV/PGS
Codec ID/Info                            : Picture based subtitle format used on BDs/HD-DVDs
Duration                                 : 40 min 0 s
Bit rate                                 : 44.6 kb/s
Count of elements                        : 750
Stream size                              : 12.8 MiB (0%)
Title                                    : German-PGS
Language                                 : German
Default                                  : No
Forced                                   : No

Text #7
ID                                       : 10
Format                                   : PGS
Muxing mode                              : zlib
Codec ID                                 : S_HDMV/PGS
Codec ID/Info                            : Picture based subtitle format used on BDs/HD-DVDs
Duration                                 : 40 min 0 s
Bit rate                                 : 38.8 kb/s
Count of elements                        : 746
Stream size                              : 11.1 MiB (0%)
Title                                    : Norwegian-PGS
Language                                 : Norwegian
Default                                  : No
Forced                                   : No

Text #8
ID                                       : 11
Format                                   : PGS
Muxing mode                              : zlib
Codec ID                                 : S_HDMV/PGS
Codec ID/Info                            : Picture based subtitle format used on BDs/HD-DVDs
Duration                                 : 40 min 0 s
Bit rate                                 : 37.4 kb/s
Count of elements                        : 750
Stream size                              : 10.7 MiB (0%)
Title                                    : Swedish-PGS
Language                                 : Swedish
Default                                  : No
Forced                                   : No

Menu
00:00:00.000                             : en:Chapter 1
00:02:08.545                             : en:Chapter 2
00:03:28.124                             : en:Chapter 3
00:06:00.943                             : en:Chapter 4
00:07:29.490                             : en:Chapter 5
00:09:58.598                             : en:Chapter 6
00:11:41.534                             : en:Chapter 7
00:14:39.670                             : en:Chapter 8
00:17:28.589                             : en:Chapter 9
00:18:12.508                             : en:Chapter 10
00:20:45.244                             : en:Chapter 11
00:23:37.999                             : en:Chapter 12
00:25:25.649                             : en:Chapter 13
00:27:27.312                             : en:Chapter 14
00:30:00.590                             : en:Chapter 15
00:34:34.072                             : en:Chapter 16
00:35:53.609                             : en:Chapter 17
00:38:29.473                             : en:Chapter 18








1 个附件 售价 大小 下载 时间

Great.White.Shark.2013.DOCU.2160p.BluRay.REMUX.AVC.DTS-HD.MA.5.1-FGT[btbtt.me].torrent 0 金币 96.87K 1155 次 8月前

#1楼
发帖时间:2018-02-13 15:28:55   |   回复数:5
tanchoohoon
武林盟主
感谢楼主的无私分享!
8月前 #2楼
liyouchai
超凡入圣№
谢谢楼主分享资源
8月前 #3楼
blue23
隐世仙人♂
感谢楼主分享
8月前 #4楼
911degrees
隐世仙人♂
非常感谢,谢谢分享
7月前 #5楼
jokingcheung
一代宗师
谢谢分享
7月前 #6楼
游客组