aoloffline
版主

[2013] [欧美] [纪录] [Remux] [BT下载]冰河时代的巨人 2013.DOCU.2160p.BluRay.REMUX.AVC.DTS-HD.MA.5.1-FGT 18GB

-->

Titans.of.the.Ice.Age.2013.DOCU.2160p.BluRay.REMUX.AVC.DTS-HD.MA.5.1-FGT

◎译  名 冰河时代的巨人

◎片  名 Titans of the Ice Age

◎年  代 2013

◎产  地 美国

◎类  别 纪录片

◎语  言 英语

◎上映日期 2013-02-15

◎IMDb评分  6.8/10 from 119 users

◎IMDb链接  http://www.imdb.com/title/tt2653370/

◎豆瓣评分 7.5/10 from 22 users

◎豆瓣链接 https://movie.douban.com/subject/22991882/

◎BT之家整理 http://www.btbtt.co 

◎导  演 大卫·克拉克 David Clark

◎主  演 克里斯托弗·普卢默 Christopher Plummer


◎简  介


  《冰河时代的巨人》引领观众回到现代文明诞生前的一万年前,在那个历史时期,人类与巨型动物共同生存在奇异壮观的冰封大陆上。本片尽可能真实的还原了北美、欧洲、亚洲大陆的壮丽地貌,利用炫目的CGI技术重塑了长毛象、剑齿虎、冰原狼等冰河时代生物,对冰河时代感兴趣的观众们来说,本片绝对是不应错过的一次饕餮盛宴。与此同时,影片还探索了可持续环境发展,在极端环境中存活等重要课题。



Video
ID                                       : 1
Format                                   : HEVC
Format/Info                              : High Efficiency Video Coding
Format profile                           : Main 10@L5.1@High
Codec ID                                 : V_MPEGH/ISO/HEVC
Duration                                 : 38 min 4 s
Bit rate                                 : 63.0 Mb/s
Width                                    : 3 840 pixels
Height                                   : 2 160 pixels
Display aspect ratio                     : 16:9
Frame rate mode                          : Constant
Frame rate                               : 23.976 (24000/1001) FPS
Color space                              : YUV
Chroma subsampling                       : 4:2:0
Bit depth                                : 10 bits
Bits/(Pixel*Frame)                       : 0.317
Stream size                              : 16.8 GiB (93%)
Title                                    : Titans.of.the.Ice.Age.2013.2160p.BluRay.REMUX.AVC.DTS-HD.MA.5.1-FGT
Writing library                          : ATEME Titan KFE 3.7.3 (4.7.3.1003)
Default                                  : Yes
Forced                                   : No
Color range                              : Limited
Color primaries                          : BT.709
Transfer characteristics                 : BT.709
Matrix coefficients                      : BT.709

Audio #1
ID                                       : 2
Format                                   : DTS
Format/Info                              : Digital Theater Systems
Format profile                           : MA / Core
Codec ID                                 : A_DTS
Duration                                 : 38 min 4 s
Bit rate mode                            : Variable / Constant
Bit rate                                 : 4 027 kb/s / 1 509 kb/s
Channel(s)                               : 6 channels
Channel positions                        : Front: L C R, Side: L R, LFE
Sampling rate                            : 48.0 kHz
Frame rate                               : 93.750 FPS (512 SPF)
Bit depth                                : 24 bits
Compression mode                         : Lossless / Lossy
Stream size                              : 1.07 GiB (6%)
Title                                    : Titans.of.the.Ice.Age.2013.2160p.BluRay.REMUX.AVC.DTS-HD.MA.5.1-FGT
Language                                 : English
Default                                  : Yes
Forced                                   : No

Audio #2
ID                                       : 3
Format                                   : DTS
Format/Info                              : Digital Theater Systems
Codec ID                                 : A_DTS
Duration                                 : 38 min 4 s
Bit rate mode                            : Constant
Bit rate                                 : 768 kb/s
Channel(s)                               : 6 channels
Channel positions                        : Front: L C R, Side: L R, LFE
Sampling rate                            : 48.0 kHz
Frame rate                               : 93.750 FPS (512 SPF)
Bit depth                                : 24 bits
Compression mode                         : Lossy
Stream size                              : 209 MiB (1%)
Title                                    : Titans.of.the.Ice.Age.2013.2160p.BluRay.REMUX.AVC.DTS-HD.MA.5.1-FGT
Language                                 : French
Default                                  : No
Forced                                   : No

Text #1
ID                                       : 4
Format                                   : PGS
Muxing mode                              : zlib
Codec ID                                 : S_HDMV/PGS
Codec ID/Info                            : Picture based subtitle format used on BDs/HD-DVDs
Duration                                 : 35 min 12 s
Bit rate                                 : 42.6 kb/s
Count of elements                        : 792
Stream size                              : 10.7 MiB (0%)
Title                                    : English-PGS
Language                                 : English
Default                                  : Yes
Forced                                   : No

Text #2
ID                                       : 5
Format                                   : PGS
Muxing mode                              : zlib
Codec ID                                 : S_HDMV/PGS
Codec ID/Info                            : Picture based subtitle format used on BDs/HD-DVDs
Duration                                 : 37 min 3 s
Bit rate                                 : 41.7 kb/s
Count of elements                        : 666
Stream size                              : 11.0 MiB (0%)
Title                                    : French-PGS
Language                                 : French
Default                                  : No
Forced                                   : No

Text #3
ID                                       : 6
Format                                   : PGS
Muxing mode                              : zlib
Codec ID                                 : S_HDMV/PGS
Codec ID/Info                            : Picture based subtitle format used on BDs/HD-DVDs
Duration                                 : 37 min 3 s
Bit rate                                 : 36.2 kb/s
Count of elements                        : 664
Stream size                              : 9.60 MiB (0%)
Title                                    : Danish-PGS
Language                                 : Danish
Default                                  : No
Forced                                   : No

Text #4
ID                                       : 7
Format                                   : PGS
Muxing mode                              : zlib
Codec ID                                 : S_HDMV/PGS
Codec ID/Info                            : Picture based subtitle format used on BDs/HD-DVDs
Duration                                 : 37 min 3 s
Bit rate                                 : 40.7 kb/s
Count of elements                        : 664
Stream size                              : 10.8 MiB (0%)
Title                                    : Dutch-PGS
Language                                 : Dutch
Default                                  : No
Forced                                   : No

Text #5
ID                                       : 8
Format                                   : PGS
Muxing mode                              : zlib
Codec ID                                 : S_HDMV/PGS
Codec ID/Info                            : Picture based subtitle format used on BDs/HD-DVDs
Duration                                 : 37 min 3 s
Bit rate                                 : 38.8 kb/s
Count of elements                        : 664
Stream size                              : 10.3 MiB (0%)
Title                                    : Finnish-PGS
Language                                 : Finnish
Default                                  : No
Forced                                   : No

Text #6
ID                                       : 9
Format                                   : PGS
Muxing mode                              : zlib
Codec ID                                 : S_HDMV/PGS
Codec ID/Info                            : Picture based subtitle format used on BDs/HD-DVDs
Duration                                 : 37 min 3 s
Bit rate                                 : 41.3 kb/s
Count of elements                        : 664
Stream size                              : 10.9 MiB (0%)
Title                                    : German-PGS
Language                                 : German
Default                                  : No
Forced                                   : No

Text #7
ID                                       : 10
Format                                   : PGS
Muxing mode                              : zlib
Codec ID                                 : S_HDMV/PGS
Codec ID/Info                            : Picture based subtitle format used on BDs/HD-DVDs
Duration                                 : 37 min 3 s
Bit rate                                 : 36.2 kb/s
Count of elements                        : 664
Stream size                              : 9.60 MiB (0%)
Title                                    : Norwegian-PGS
Language                                 : Norwegian
Default                                  : No
Forced                                   : No

Text #8
ID                                       : 11
Format                                   : PGS
Muxing mode                              : zlib
Codec ID                                 : S_HDMV/PGS
Codec ID/Info                            : Picture based subtitle format used on BDs/HD-DVDs
Duration                                 : 37 min 3 s
Bit rate                                 : 36.2 kb/s
Count of elements                        : 664
Stream size                              : 9.59 MiB (0%)
Title                                    : Swedish-PGS
Language                                 : Swedish
Default                                  : No
Forced                                   : No

Menu
00:00:00.000                             : en:Chapter 1
00:02:38.408                             : en:Chapter 2
00:04:45.368                             : en:Chapter 3
00:06:17.168                             : en:Chapter 4
00:09:14.387                             : en:Chapter 5
00:11:03.788                             : en:Chapter 6
00:14:04.593                             : en:Chapter 7
00:16:29.655                             : en:Chapter 8
00:18:29.900                             : en:Chapter 9
00:19:40.637                             : en:Chapter 10
00:21:39.256                             : en:Chapter 11
00:22:16.168                             : en:Chapter 12
00:23:29.324                             : en:Chapter 13
00:26:55.363                             : en:Chapter 14
00:28:36.089                             : en:Chapter 15
00:29:43.364                             : en:Chapter 16
00:33:13.366                             : en:Chapter 17
00:35:58.865                             : en:Chapter 18





1 个附件 售价 大小 下载 时间

Titans.of.the.Ice.Age.2013.DOCU.2160p.BluRay.REMUX.AVC.DTS-HD.MA.5.1-FGT[btbtt.me].torrent 0 金币 90.84K 693 次 6天前

#1楼
发帖时间:2018-02-13 15:31:23   |   回复数:2
liyouchai
超凡入圣№
谢谢楼主分享资源
6天前 #2楼
blue23
隐世仙人♂
感谢楼主分享
5天前 #3楼
游客组