aoloffline
版主

[2015] [欧美] [纪录] [BD-1080P] [BT下载]太空之旅 2015.DOCU.1080p.BluRay.x264.TrueHD.7.1.Atmos-SWTYBLZ 4.5GB

-->

Journey.to.Space.2015.DOCU.1080p.BluRay.x264.TrueHD.7.1.Atmos-SWTYBLZ

◎译  名 太空之旅/宇宙之旅

◎片  名 Journey to Space

◎年  代 2015

◎产  地 美国

◎类  别 科幻/冒险/纪录片

◎语  言 英语

◎上映日期 2015-02-13(美国)/2015-04-08(北京电影节)

◎IMDb评分  6.5/10 from 483 users

◎IMDb链接  http://www.imdb.com/title/tt4292554/

◎豆瓣评分 8.0/10 from 82 users

◎豆瓣链接 https://movie.douban.com/subject/26420838/

◎BT之家整理 http://www.btbtt.co 

◎片  长 45分钟

◎导  演 Mark Krenzien

◎主  演 帕特里克·斯图尔特 Patrick Stewart

      Serena Aunon

      Lindsay Aitchison

      Chris Ferguson


◎简  介


  Journey To Space unveils a new era of unprecedented deep space exploration in dramatic giant screen film format. It tells the true exciting story of what the next chapter of space exploration holds for both the near- and long-term. “Journey To Space,” presented by The Boeing Company and Toyota, showcases the plans by NASA and the larger space community to land astronauts on Mars.



Video
ID                                       : 1
Format                                   : AVC
Format/Info                              : Advanced Video Codec
Format profile                           : High@L4.1
Format settings                          : CABAC / 4 Ref Frames
Format settings, CABAC                   : Yes
Format settings, ReFrames                : 4 frames
Codec ID                                 : V_MPEG4/ISO/AVC
Duration                                 : 41 min 34 s
Bit rate                                 : 10.6 Mb/s
Width                                    : 1 920 pixels
Height                                   : 1 080 pixels
Display aspect ratio                     : 16:9
Frame rate mode                          : Constant
Frame rate                               : 23.976 FPS
Color space                              : YUV
Chroma subsampling                       : 4:2:0
Bit depth                                : 8 bits
Scan type                                : Progressive
Bits/(Pixel*Frame)                       : 0.214
Stream size                              : 3.09 GiB (68%)
Title                                    : Journey.to.Space.2015.DOCU.1080p.BluRay.x264.TrueHD.7.1.Atmos-SWTYBLZ
Writing library                          : x264 core 148 r2692 64f4e24
Encoding settings                        : cabac=1 / ref=4 / deblock=1:0:0 / analyse=0x3:0x133 / me=umh / subme=7 / psy=1 / psy_rd=1.00:0.00 / mixed_ref=1 / me_range=16 / chroma_me=1 / trellis=1 / 8x8dct=1 / cqm=0 / deadzone=21,11 / fast_pskip=0 / chroma_qp_offset=-2 / threads=24 / lookahead_threads=4 / sliced_threads=0 / nr=0 / decimate=1 / interlaced=0 / bluray_compat=0 / constrained_intra=0 / bframes=3 / b_pyramid=2 / b_adapt=1 / b_bias=0 / direct=1 / weightb=1 / open_gop=0 / weightp=2 / keyint=250 / keyint_min=23 / scenecut=40 / intra_refresh=0 / rc_lookahead=40 / rc=2pass / mbtree=1 / bitrate=10640 / ratetol=1.0 / qcomp=0.60 / qpmin=0 / qpmax=69 / qpstep=4 / cplxblur=20.0 / qblur=0.5 / ip_ratio=1.40 / aq=1:1.00
Language                                 : English
Default                                  : Yes
Forced                                   : No

Audio #1
ID                                       : 2
Format                                   : TrueHD
Format profile                           : TrueHD+Atmos / TrueHD
Codec ID                                 : A_TRUEHD
Duration                                 : 41 min 34 s
Bit rate mode                            : Variable
Bit rate                                 : 4 208 kb/s
Maximum bit rate                         : 6 144 kb/s
Channel(s)                               : Object Based / 8 channels
Channel positions                        : Object Based / Front: L C R, Side: L R, Back: L R, LFE
Sampling rate                            :  / 48.0 kHz
Frame rate                               : 1 200.000 FPS (40 SPF)
Compression mode                         : Lossless
Stream size                              : 1.22 GiB (27%)
Title                                    : Journey.to.Space.2015.DOCU.1080p.BluRay.x264.TrueHD.7.1.Atmos-SWTYBLZ
Language                                 : English
Default                                  : Yes
Forced                                   : No

Audio #2
ID                                       : 3
Format                                   : AC-3
Format/Info                              : Audio Coding 3
Codec ID                                 : A_AC3
Duration                                 : 41 min 34 s
Bit rate mode                            : Constant
Bit rate                                 : 640 kb/s
Channel(s)                               : 6 channels
Channel positions                        : Front: L C R, Side: L R, LFE
Sampling rate                            : 48.0 kHz
Frame rate                               : 31.250 FPS (1536 SPF)
Bit depth                                : 16 bits
Compression mode                         : Lossy
Stream size                              : 190 MiB (4%)
Title                                    : Journey.to.Space.2015.DOCU.1080p.BluRay.x264.TrueHD.7.1.Atmos-SWTYBLZ
Language                                 : English
Service kind                             : Complete Main
Default                                  : No
Forced                                   : No

Text
ID                                       : 4
Format                                   : UTF-8
Codec ID                                 : S_TEXT/UTF8
Codec ID/Info                            : UTF-8 Plain Text
Duration                                 : 38 min 46 s
Bit rate                                 : 71 b/s
Count of elements                        : 483
Stream size                              : 20.4 KiB (0%)
Title                                    : English-SRT
Language                                 : English
Default                                  : Yes
Forced                                   : No

Menu
00:00:00.000                             : en:00:00:00.000
00:03:06.770                             : en:00:03:06.770
00:05:48.974                             : en:00:05:48.974
00:08:23.878                             : en:00:08:23.878
00:10:55.738                             : en:00:10:55.738
00:12:19.322                             : en:00:12:19.322
00:15:04.153                             : en:00:15:04.153
00:17:16.494                             : en:00:17:16.494
00:20:31.230                             : en:00:20:31.230
00:23:14.018                             : en:00:23:14.018
00:23:51.555                             : en:00:23:51.555
00:26:17.284                             : en:00:26:17.284
00:28:08.103                             : en:00:28:08.103
00:30:48.055                             : en:00:30:48.055
00:33:43.271                             : en:00:33:43.271
00:38:43.154                             : en:00:38:43.154





1 个附件 售价 大小 下载 时间

Journey.to.Space.2015.DOCU.1080p.BluRay.x264.TrueHD.7.1.Atmos-SWTYBLZ[btbtt.me].torrent 0 金币 90.87K 1596 次 6月前

#1楼
发帖时间:2018-02-13 15:43:52   |   回复数:3
liyouchai
超凡入圣№
谢谢楼主分享资源
6月前 #2楼
blue23
隐世仙人♂
感谢楼主分享
6月前 #3楼
911degrees
隐世仙人♂
非常感谢,谢谢分享
5月前 #4楼
游客组