aoloffline
版主

[2018] [欧美] [犯罪] [WEB-1080P] [BT下载]私运之人 Ridge.Runners.2018.1080p.WEB-DL.DD5.1.H264-FGT 2.8GB

-->

Ridge.Runners.2018.1080p.WEB-DL.DD5.1.H264-FGT

◎译  名 私运之人

◎片  名 Ridge.Runners

◎年  代 2018

◎产  地 美国

◎类  别 犯罪/惊悚

◎语  言 英语

◎IMDb评分  N/A

◎IMDb链接  http://www.imdb.com/title/tt4872260/

◎BT之家整理 http://www.btbtt.co 

◎片  长 1h 21mi

◎导  演 Hunter West

◎主  演 Jennica Schwartzman ... Rachel Willow

      Austin Haley ... Rob Shepherd

      Christopher Howell ... Truman Duncan

      Jason Thompson ... Clayton


◎简  介


  When a 12 year old girl goes missing| detective Rachel Willow discovers that human trafficking can happen anywhere| even in her small town.


Video
ID                                       : 1
Format                                   : AVC
Format/Info                              : Advanced Video Codec
Format profile                           : High@L4
Format settings                          : CABAC / 5 Ref Frames
Format settings, CABAC                   : Yes
Format settings, ReFrames                : 5 frames
Codec ID                                 : V_MPEG4/ISO/AVC
Duration                                 : 1 h 20 min
Bit rate                                 : 4 621 kb/s
Width                                    : 1 908 pixels
Height                                   : 792 pixels
Display aspect ratio                     : 2.40:1
Frame rate mode                          : Constant
Frame rate                               : 23.976 (24000/1001) FPS
Color space                              : YUV
Chroma subsampling                       : 4:2:0
Bit depth                                : 8 bits
Scan type                                : Progressive
Bits/(Pixel*Frame)                       : 0.128
Stream size                              : 2.59 GiB (92%)
Title                                    : Ridge.Runners.2017.1080p.WEB-DL.DD5.1.H264-FGT
Language                                 : English
Default                                  : Yes
Forced                                   : No
Color range                              : Limited
Color primaries                          : BT.709
Transfer characteristics                 : BT.709
Matrix coefficients                      : BT.709

Audio
ID                                       : 2
Format                                   : AC-3
Format/Info                              : Audio Coding 3
Codec ID                                 : A_AC3
Duration                                 : 1 h 20 min
Bit rate mode                            : Constant
Bit rate                                 : 384 kb/s
Channel(s)                               : 6 channels
Channel positions                        : Front: L C R, Side: L R, LFE
Sampling rate                            : 48.0 kHz
Frame rate                               : 31.250 FPS (1536 SPF)
Bit depth                                : 16 bits
Compression mode                         : Lossy
Delay relative to video                  : -42 ms
Stream size                              : 220 MiB (8%)
Title                                    : Ridge.Runners.2017.1080p.WEB-DL.DD5.1.H264-FGT
Language                                 : English
Service kind                             : Complete Main
Default                                  : Yes
Forced                                   : No

Menu
00:00:00.000                             : en:1
00:00:35.000                             : en:2
00:10:31.000                             : en:3
00:17:35.000                             : en:4
00:25:54.000                             : en:5
00:35:31.000                             : en:6
00:45:28.000                             : en:7
00:57:36.000                             : en:8
01:05:40.000                             : en:9
01:15:22.000                             : en:10





1 个附件 售价 大小 下载 时间

Ridge.Runners.2018.1080p.WEB-DL.DD5.1.H264-FGT[btbtt.me].torrent 0 金币 56.63K 511 次 3月前

#1楼
发帖时间:2018-02-13 17:34:59   |   回复数:3
liyouchai
超凡入圣№
谢谢楼主分享资源
3月前 #2楼
blue23
隐世仙人♂
感谢楼主分享
3月前 #3楼
911degrees
超凡入圣№
非常感谢,谢谢分享
3月前 #4楼
游客组