aoloffline
版主

[2017] [欧美] [剧情] [BD-1080P] [BT下载]陌路之恋 2017.1080p.BluRay.x264.DTS-HD.MA.5.1-FGT 11.19GB

-->

Same.Kind.of.Different.as.Me.2017.1080p.BluRay.x264.DTS-HD.MA.5.1-FGT

◎译  名 陌路之恋/绅士与流浪汉(台)

◎片  名 Same Kind of Different as Me

◎年  代 2017

◎产  地 美国

◎类  别 剧情

◎语  言 英语

◎上映日期 2017-10-20(美国)

◎豆瓣评分 7.1/10 from 50 users

◎豆瓣链接 https://movie.douban.com/subject/3068574/

◎BT之家整理 http://www.btbtt.co

◎片  长 119分钟

◎导  演 迈克尔·卡尼 Michael Carney

◎主  演 蕾妮·齐薇格 Renée Zellweger

      强·沃特 Jon Voight

      杰曼·翰苏 Djimon Hounsou

      格雷戈·金尼尔 Greg Kinnear

      奥利维亚·霍尔特 Olivia Holt

      丹娜·格瑞尔 Dana Gourrier

      拉腊·格赖斯 Lara Grice

      佩顿·威奇 Peyton Wich

      安·马奥尼 Ann Mahoney

      米凯尔·珊农·詹金斯 Mykel Shannon Jenkins

      斯蒂芬妮·利·施朗德 Stephanie Leigh Schlund

      托马斯·弗兰西斯·墨菲 Thomas Francis Murphy

      丹尼尔·扎卡帕 Daniel Zacapa

      耐尔斯·斯蒂尔 Nyles Steele

      托内亚·斯图尔特 Tonea Stewart

      大卫·詹森 David Jensen


◎简  介


  本片改编自丹佛·摩尔与朗·霍尔合着的纪实小说。

  这是一则真实故事,生活于上流社会,事业有成的国际艺术画商朗·霍尔,某天听到妻子叙说她神奇的梦,这个梦将开启他与世界上另一个角落的男人,建立友谊并陪伴他度过人生最伤痛的时刻。


Video
ID                                       : 1
Format                                   : AVC
Format/Info                              : Advanced Video Codec
Format profile                           : High@L4.1
Format settings                          : CABAC / 4 Ref Frames
Format settings, CABAC                   : Yes
Format settings, ReFrames                : 4 frames
Codec ID                                 : V_MPEG4/ISO/AVC
Duration                                 : 1 h 59 min
Bit rate                                 : 10.2 Mb/s
Width                                    : 1 920 pixels
Height                                   : 800 pixels
Display aspect ratio                     : 2.40:1
Frame rate mode                          : Constant
Frame rate                               : 23.976 (24000/1001) FPS
Color space                              : YUV
Chroma subsampling                       : 4:2:0
Bit depth                                : 8 bits
Scan type                                : Progressive
Bits/(Pixel*Frame)                       : 0.278
Stream size                              : 8.53 GiB (76%)
Title                                    : Same.Kind.of.Different.as.Me.2017.1080p.BluRay.x264.DTS-HD.MA.5.1-FGT
Writing library                          : x264 core 149 r2771+45 509cceb 7mod [8-bit@all X86_64]
Encoding settings                        : cabac=1 / ref=4 / deblock=1:-3:-3 / analyse=0x3:0x113 / me=umh / subme=10 / psy=1 / fade_compensate=0.00 / psy_rd=0.90:0.10 / mixed_ref=1 / me_range=48 / chroma_me=1 / trellis=2 / 8x8dct=1 / cqm=0 / deadzone=21,11 / fast_pskip=0 / chroma_qp_offset=-2 / threads=12 / lookahead_threads=2 / sliced_threads=0 / nr=0 / decimate=1 / interlaced=0 / bluray_compat=0 / constrained_intra=0 / fgo=0 / bframes=8 / b_pyramid=2 / b_adapt=2 / b_bias=0 / direct=3 / weightb=1 / open_gop=0 / weightp=2 / keyint=250 / keyint_min=23 / scenecut=40 / intra_refresh=0 / rc_lookahead=40 / rc=crf / mbtree=0 / crf=19.0000 / qcomp=0.70 / qpmin=0:0:0 / qpmax=69:69:69 / qpstep=4 / vbv_maxrate=35000 / vbv_bufsize=35000 / crf_max=0.0 / nal_hrd=none / filler=0 / ip_ratio=1.40 / pb_ratio=1.30 / aq=3:1.00 / aq-sensitivity=10.00 / aq-factor=1.00:1.00:1.00 / aq2=0 / aq3=2:[0.50:0.50]:[0.50:0.50]:[0.50:0.50]:[0.50:0.50] / aq3-sensitivity=10.00 / aq3-factor=[1.00:1.00]:[1.00:1.00]:[1.00:1.00] / aq3-boundary=192:64:24
Language                                 : English
Default                                  : Yes
Forced                                   : No
Color range                              : Limited
Matrix coefficients                      : BT.709

Audio
ID                                       : 2
Format                                   : DTS
Format/Info                              : Digital Theater Systems
Format profile                           : MA / Core
Codec ID                                 : A_DTS
Duration                                 : 1 h 59 min
Bit rate mode                            : Variable / Constant
Bit rate                                 : 3 072 kb/s / 1 509 kb/s
Channel(s)                               : 6 channels
Channel positions                        : Front: L C R, Side: L R, LFE
Sampling rate                            : 48.0 kHz
Frame rate                               : 93.750 FPS (512 SPF)
Bit depth                                : 24 bits
Compression mode                         : Lossless / Lossy
Stream size                              : 2.58 GiB (23%)
Title                                    : Same.Kind.of.Different.as.Me.2017.1080p.BluRay.x264.DTS-HD.MA.5.1-FGT
Language                                 : English
Default                                  : Yes
Forced                                   : No

Text #1
ID                                       : 3
Format                                   : PGS
Muxing mode                              : zlib
Codec ID                                 : S_HDMV/PGS
Codec ID/Info                            : Picture based subtitle format used on BDs/HD-DVDs
Duration                                 : 1 h 56 min
Bit rate                                 : 33.0 kb/s
Count of elements                        : 2501
Stream size                              : 27.5 MiB (0%)
Title                                    : English-PGS
Language                                 : English
Default                                  : Yes
Forced                                   : No

Text #2
ID                                       : 4
Format                                   : PGS
Muxing mode                              : zlib
Codec ID                                 : S_HDMV/PGS
Codec ID/Info                            : Picture based subtitle format used on BDs/HD-DVDs
Duration                                 : 1 h 58 min
Bit rate                                 : 37.2 kb/s
Count of elements                        : 2951
Stream size                              : 31.5 MiB (0%)
Title                                    : English-SDH-PGS
Language                                 : English
Default                                  : No
Forced                                   : No

Text #3
ID                                       : 5
Format                                   : PGS
Muxing mode                              : zlib
Codec ID                                 : S_HDMV/PGS
Codec ID/Info                            : Picture based subtitle format used on BDs/HD-DVDs
Duration                                 : 1 h 56 min
Bit rate                                 : 29.5 kb/s
Count of elements                        : 2489
Stream size                              : 24.7 MiB (0%)
Title                                    : French-PGS
Language                                 : French
Default                                  : No
Forced                                   : No

Text #4
ID                                       : 6
Format                                   : PGS
Muxing mode                              : zlib
Codec ID                                 : S_HDMV/PGS
Codec ID/Info                            : Picture based subtitle format used on BDs/HD-DVDs
Duration                                 : 1 h 56 min
Bit rate                                 : 32.8 kb/s
Count of elements                        : 2508
Stream size                              : 27.4 MiB (0%)
Title                                    : Spanish-PGS
Language                                 : Spanish
Default                                  : No
Forced                                   : No

Text #5
ID                                       : 7
Format                                   : PGS
Muxing mode                              : zlib
Codec ID                                 : S_HDMV/PGS
Codec ID/Info                            : Picture based subtitle format used on BDs/HD-DVDs
Duration                                 : 1 h 58 min
Bit rate                                 : 33.5 kb/s
Count of elements                        : 2541
Stream size                              : 28.4 MiB (0%)
Title                                    : German-PGS
Language                                 : German
Default                                  : No
Forced                                   : No

Menu
00:00:00.000                             : en:Chapter 01
00:07:33.327                             : en:Chapter 02
00:14:07.429                             : en:Chapter 03
00:20:27.517                             : en:Chapter 04
00:26:51.610                             : en:Chapter 05
00:32:24.108                             : en:Chapter 06
00:37:42.009                             : en:Chapter 07
00:44:49.978                             : en:Chapter 08
00:51:43.767                             : en:Chapter 09
00:57:21.062                             : en:Chapter 10
01:03:50.785                             : en:Chapter 11
01:12:40.689                             : en:Chapter 12
01:20:03.340                             : en:Chapter 13
01:27:32.747                             : en:Chapter 14
01:32:40.888                             : en:Chapter 15
01:40:31.817                             : en:Chapter 16
01:47:21.226                             : en:Chapter 17
01:55:30.173                             : en:Chapter 18





1 个附件 售价 大小 下载 时间

Same.Kind.of.Different.as.Me.2017.1080p.BluRay.x264.DTS-HD.MA.5.1-FGT[btbtt.me].torrent 0 金币 56.52K 959 次 3月前

#1楼
发帖时间:2018-02-13 21:51:59   |   回复数:3
liyouchai
超凡入圣№
谢谢楼主分享资源
3月前 #2楼
blue23
隐世仙人♂
感谢楼主分享
3月前 #3楼
911degrees
超凡入圣№
非常感谢,谢谢分享
3月前 #4楼
游客组