aoloffline
版主

[2011] [欧美] [爱情] [WEB-1080P] [BT下载]咫尺天堂 Midway.to.Heaven.2011.1080p.WEBRip.AAC2.0.x264-FGT 1.83GB

-->

Midway.to.Heaven.2011.1080p.WEBRip.AAC2.0.x264-FGT

◎译  名 咫尺天堂 

◎片  名 Midway to Heaven

◎年  代 2011

◎产  地 美国

◎类  别 爱情

◎语  言 英语

◎上映日期 2011-02-04

◎BT之家整理 http://www.btbtt.co

◎片  长 80

◎导  演 Michael Flynn

◎主  演 Curt Doussett

      Kirby Heyborne

      Michelle Money

      Melanie Nelson


◎简  介


  It has been years since Ned Stevens, a charming self-made success, lost his wife Kate to cancer. Yet he still can't let go of her memory and move forward with his life.. But when Liz brings home a new boyfriend from college -- Ned finds that his comfortable world is turned upside down as Liz tries to divert his attention to Carol, an attractive single woman who lives in Ned's neighborhood.


Video
ID                                       : 1
Format                                   : AVC
Format/Info                              : Advanced Video Codec
Format profile                           : [email protected]
Format settings                          : 3 Ref Frames
Format settings, CABAC                   : No
Format settings, ReFrames                : 3 frames
Codec ID                                 : V_MPEG4/ISO/AVC
Duration                                 : 1 h 20 min
Bit rate                                 : 3 010 kb/s
Width                                    : 1 920 pixels
Height                                   : 1 080 pixels
Display aspect ratio                     : 16:9
Frame rate mode                          : Variable
Frame rate                               : 23.676 FPS
Color space                              : YUV
Chroma subsampling                       : 4:2:0
Bit depth                                : 8 bits
Scan type                                : Progressive
Bits/(Pixel*Frame)                       : 0.061
Stream size                              : 1.65 GiB (90%)
Title                                    : Midway.to.Heaven.2011.1080p.WEBRip.AAC2.0.x264-FGT
Writing library                          : x264 core 130
Encoding settings                        : cabac=0 / ref=3 / deblock=1:0:0 / analyse=0x1:0x111 / me=umh / subme=8 / psy=1 / psy_rd=1.00:0.00 / mixed_ref=1 / me_range=16 / chroma_me=1 / trellis=1 / 8x8dct=0 / cqm=0 / deadzone=21,11 / fast_pskip=1 / chroma_qp_offset=-2 / threads=60 / lookahead_threads=8 / sliced_threads=0 / nr=0 / decimate=1 / interlaced=0 / bluray_compat=0 / constrained_intra=0 / bframes=0 / weightp=2 / keyint=71 / keyint_min=7 / scenecut=40 / intra_refresh=0 / rc_lookahead=40 / rc=2pass / mbtree=1 / bitrate=3010 / ratetol=1.0 / qcomp=0.60 / qpmin=0 / qpmax=69 / qpstep=4 / cplxblur=20.0 / qblur=0.5 / vbv_maxrate=3696 / vbv_bufsize=3696 / nal_hrd=none / ip_ratio=1.40 / aq=1:1.00
Default                                  : Yes
Forced                                   : No

Audio
ID                                       : 2
Format                                   : AAC
Format/Info                              : Advanced Audio Codec
Format profile                           : LC
Codec ID                                 : A_AAC-2
Duration                                 : 1 h 20 min
Bit rate                                 : 316 kb/s
Channel(s)                               : 2 channels
Channel positions                        : Front: L R
Sampling rate                            : 44.1 kHz
Frame rate                               : 43.066 FPS (1024 SPF)
Compression mode                         : Lossy
Delay relative to video                  : -46 ms
Stream size                              : 181 MiB (10%)
Title                                    : Midway.to.Heaven.2011.1080p.WEBRip.AAC2.0.x264-FGT
Default                                  : Yes
Forced                                   : No

Text
ID                                       : 3
Format                                   : UTF-8
Codec ID                                 : S_TEXT/UTF8
Codec ID/Info                            : UTF-8 Plain Text
Duration                                 : 1 h 19 min
Bit rate                                 : 76 b/s
Count of elements                        : 1465
Stream size                              : 44.7 KiB (0%)
Language                                 : English
Default                                  : Yes
Forced                                   : No



1 个附件 售价 大小 下载 时间

Midway.to.Heaven.2011.1080p.WEBRip.AAC2.0.x264-FGT[btbtt.me].torrent 0 金币 37.18K 560 次 2018-3-2

#1楼
发帖时间:2018-03-02 18:04:05   |   回复数:3
blue23
隐世仙人♂
感谢楼主分享
2018-3-2 #2楼
liyouchai
隐世仙人♂
谢谢楼主分享资源
2018-3-2 #3楼
911degrees
隐世仙人♂
非常感谢,谢谢分享
2018-3-3 #4楼
游客组