_KOOK
武林高手

[2011] [欧美] [剧情] [BD-1080P] [BT下载]布鲁娜·瑟非斯丁.Bruna Surfistinha.2011.BR.BluRay.1920x1038p.x264.DTS-KOOK.[葡语中字]

-->

布鲁娜·瑟非斯丁.Bruna Surfistinha.2011.BR.BluRay.1920x1038p.x264.DTS-KOOK.[葡语中字] 9.5GB




※※※※※※※ 影片信息 ※※※※※※※


◎片   名 Bruna Surfistinha

◎译   名 布鲁娜·瑟非斯丁 / 布魯娜 瑟非斯丁 / Little Surfer Girl

◎年   代 2011

◎国   家 巴西

◎类   别 剧情

◎语   言 葡萄牙语

◎上映日 期 2011-02-25(巴西)

◎字   幕 简体字幕/繁体字幕

◎IMDB 评分  /10 from  users

◎豆瓣 评分  6.7/10 from 2019 users

◎视频尺 寸  1920x1038p

◎片   长 1.47.37

◎导   演 马库斯·巴尔蒂尼 Marcus Baldini

◎编     剧  Homero Olivetto / José de Carvalho

◎主   演 黛博拉·赛科 / 卡西欧·伽布斯·门得斯 / 德莉卡·莫拉埃斯




 

◎简  介



  还是高中生的时候,她在学校里经常被欺负,在家也和家人不和,一气之下离家出走,专门跑去一间妓院找工作。17岁,成了妓女,她将名字改成布鲁娜(Deborah Secco 饰)。布鲁娜工作用心、敬业,又年轻漂亮,很快成为红牌,和同行们也交上朋友。一次藏毒风波,布鲁娜带着几个好友独立出来另立门户,她开设了一个博客,迅速走红网络,慕名而来的客人络绎不绝。事业蒸蒸日上,财源滚滚不断,甚至上了电视节目,成了明星,布鲁娜却开始迷失,她沉迷毒品,找不到方向,客人开始离她而去。幸而她的第一个客人始终陪在她身边不离不弃,她发现自己心中的爱,也再度振作起来,决定“退休”的同时,也勇敢写出自己三年来的故事…… 

  本片改编自巴西“名妓女变畅销作家”的真实故事。



〈作者简介〉


Bruna Surfistinha(布鲁娜.瑟非斯丁)


  本名Raquel Pacheco(瑞可儿.帕契寇),在即将离开妓女这个行业时,把三年来在网络部落格上发表接客的经历集结成书,一夕成名,成为二十一世纪全球最知名的妓女。


  妓女这个行业遍行在世界各个角落,但为何记载了布鲁娜接客细节的部落格可以在网络上造成轰动?而她的故事更成为国际知名媒体争相报导的焦点?或许,由布鲁娜说出的这番话最能回应她这部作品吸引读者的理由:「我不会愚蠢到跟随某些评论家所说的,认为这本书最吸引读者的地方,在于它揭露了一位妓女的祕密生活,因为这个『世界上最古老的行业』根本没有祕密可言。只能说,我把虚伪放在一旁,让读者去面对此书所呈现的真正祕密。」


  而布鲁娜所谓的「祕密」,其实也就是指:在卖淫的背后,散发出足以吸引男性的那种不可言喻的气息。


  有趣的是,布鲁娜在书里除了说她的故事,甚至以她「阅人无数」的经验,在书末教起了全天下女性如何改进床上功夫,以增进男女之间的闺房情趣。因为这也是她想奉劝全天下女性的地方:或许先了解你的男人为何会去嫖妓,远比去斥责这个行业的存在来得重要。



※※※※※※※ 参数信息 ※※※※※※※




General

Unique ID                      : 228757791922595955876074830488173810600 (0xAC1925ECFFAAF81C92516F1B860813A8)


Format                         : Matroska

Format version                 : Version 4 / Version 2

File size                      : 9.50 GiB

Duration                       : 1 h 47 min

Overall bit rate               : 12.6 Mb/s

Encoded date                   : UTC 2018-03-02 08:41:41

Writing application            : mkvmerge v9.4.2 ('So High') 64bit

Writing library                : libebml v1.3.4 + libmatroska v1.4.5

Attachments                    : 正式海报 巴西.jpg


Video

ID                             : 1

Format                         : AVC

Format/Info                    : Advanced Video Codec

Format profile                 : [email protected]

Format settings, CABAC         : Yes

Format settings, ReFrames      : 4 frames

Codec ID                       : V_MPEG4/ISO/AVC

Duration                       : 1 h 47 min

Bit rate                       : 11.1 Mb/s

Width                          : 1 920 pixels

Height                         : 1 038 pixels

Display aspect ratio           : 1.85:1

Frame rate mode                : Constant

Frame rate                     : 23.976 FPS

Color space                    : YUV

Chroma subsampling             : 4:2:0

Bit depth                      : 8 bits

Scan type                      : Progressive

Bits/(Pixel*Frame)             : 0.233

Stream size                    : 8.36 GiB (88%)

Title                          : kook

Writing library                : x264 core 115 r2008 4c552d8

Encoding settings              : cabac=1 / ref=4 / deblock=1:-3:-3 / analyse=0x3:0x113 / me=umh / subme=10 / psy=1 / psy_rd=1.05:0.10 / mixed_ref=1 / me_range=48 / chroma_me=1 / trellis=2 / 8x8dct=1 / cqm=0 / deadzone=21,11 / fast_pskip=0 / chroma_qp_offset=-2 / threads=12 / sliced_threads=0 / nr=0 / decimate=1 / interlaced=0 / bluray_compat=0 / constrained_intra=0 / bframes=6 / b_pyramid=2 / b_adapt=2 / b_bias=0 / direct=3 / weightb=1 / open_gop=0 / weightp=2 / keyint=250 / keyint_min=23 / scenecut=40 / intra_refresh=0 / rc_lookahead=60 / rc=2pass / mbtree=1 / bitrate=11131 / ratetol=1.0 / qcomp=0.70 / qpmin=0 / qpmax=69 / qpstep=4 / cplxblur=20.0 / qblur=0.5 / vbv_maxrate=40000 / vbv_bufsize=30000 / nal_hrd=none / ip_ratio=1.40 / aq=1:0.90

Language                       : English

Default                        : Yes

Forced                         : No


Audio

ID                             : 2

Format                         : DTS

Format/Info                    : Digital Theater Systems

Mode                           : 16

Format settings, Endianness    : Big

Codec ID                       : A_DTS

Duration                       : 1 h 47 min

Bit rate mode                  : Constant

Bit rate                       : 1 509 kb/s

Channel(s)                     : 6 channels

Channel positions              : Front: L C R, Side: L R, LFE

Sampling rate                  : 48.0 kHz

Frame rate                     : 93.750 FPS (512 spf)

Bit depth                      : 24 bits

Compression mode               : Lossy

Stream size                    : 1.13 GiB (12%)

Default                        : Yes

Forced                         : No


Text #1

ID                             : 3

Format                         : ASS

Codec ID                       : S_TEXT/ASS

Codec ID/Info                  : Advanced Sub Station Alpha

Duration                       : 1 h 42 min

Bit rate                       : 86 b/s

Count of elements              : 961

Compression mode               : Lossless

Stream size                    : 64.9 KiB (0%)

Title                          : 简体字幕

Language                       : Chinese

Default                        : Yes

Forced                         : No


Text #2

ID                             : 4

Format                         : ASS

Codec ID                       : S_TEXT/ASS

Codec ID/Info                  : Advanced Sub Station Alpha

Duration                       : 1 h 42 min

Bit rate                       : 86 b/s

Count of elements              : 961

Compression mode               : Lossless

Stream size                    : 64.9 KiB (0%)

Title                          : 繁体字幕

Language                       : Chinese

Default                        : No

Forced                         : No


1 个附件 售价 大小 下载 时间

布鲁娜·瑟非斯丁.Bruna Surfistinha.2011.BR.BluRay.1920x1038p.x264.DTS-KOOK.[葡语中字].torrent 0 金币 99.65K 3557 次 2018-3-2

#1楼
发帖时间:2018-03-02 20:50:10   |   回复数:3
liyouchai
隐世仙人♂
谢谢楼主分享资源
2018-3-2 #2楼
blue23
隐世仙人♂
感谢楼主分享
2018-3-2 #3楼
911degrees
隐世仙人♂
非常感谢,谢谢分享
2018-3-3 #4楼
游客组