aoloffline
版主

[2015] [欧美] [恐怖] [WEB-1080P] [BT下载]窗帘惊魂 The.Gateway.2015.1080p.WEB-DL.DD5.1.H264-FGT 2.56GB

-->

The.Gateway.2015.1080p.WEB-DL.DD5.1.H264-FGT

◎译  名 窗帘惊魂

◎片  名 Curtain

◎年  代 2015

◎产  地 美国

◎类  别 恐怖

◎语  言 英语

◎上映日期 2015-08-31(英国)

◎IMDb评分  4.8/10 from 372 users

◎IMDb链接  http://www.imdb.com/title/tt3118442/

◎BT之家整理 http://www.btbtt.co

◎片  长 74 min

◎导  演 Jaron Henrie-McCrea

◎主  演 Danni Smith

      Tim Lueke

      Martin Monahan


◎简  介


  A burnt out nurse moves into a new apartment in search of a simpler life. But when her shower curtains begin to disappear through a mysterious portal she discovers there's no such thing as simple in this world, or any other.


Video
ID                                       : 1
Format                                   : AVC
Format/Info                              : Advanced Video Codec
Format profile                           : High@L4
Format settings                          : CABAC / 4 Ref Frames
Format settings, CABAC                   : Yes
Format settings, ReFrames                : 4 frames
Codec ID                                 : V_MPEG4/ISO/AVC
Duration                                 : 1 h 13 min
Bit rate                                 : 4 617 kb/s
Width                                    : 1 920 pixels
Height                                   : 816 pixels
Display aspect ratio                     : 2.35:1
Frame rate mode                          : Constant
Frame rate                               : 23.976 (24000/1001) FPS
Color space                              : YUV
Chroma subsampling                       : 4:2:0
Bit depth                                : 8 bits
Scan type                                : Progressive
Bits/(Pixel*Frame)                       : 0.123
Stream size                              : 2.36 GiB (92%)
Title                                    : The.Gateway.2015.1080p.WEB-DL.DD5.1.H.264-FGT
Default                                  : Yes
Forced                                   : No
Color range                              : Limited
Color primaries                          : BT.709
Transfer characteristics                 : BT.709
Matrix coefficients                      : BT.709

Audio
ID                                       : 2
Format                                   : AC-3
Format/Info                              : Audio Coding 3
Codec ID                                 : A_AC3
Duration                                 : 1 h 13 min
Bit rate mode                            : Constant
Bit rate                                 : 384 kb/s
Channel(s)                               : 6 channels
Channel positions                        : Front: L C R, Side: L R, LFE
Sampling rate                            : 44.1 kHz
Frame rate                               : 28.711 FPS (1536 SPF)
Bit depth                                : 16 bits
Compression mode                         : Lossy
Stream size                              : 201 MiB (8%)
Title                                    : The.Gateway.2015.1080p.WEB-DL.DD5.1.H.264-FGT
Language                                 : English
Service kind                             : Complete Main
Default                                  : Yes
Forced                                   : No

Text
ID                                       : 3
Format                                   : UTF-8
Codec ID                                 : S_TEXT/UTF8
Codec ID/Info                            : UTF-8 Plain Text
Duration                                 : 1 h 11 min
Bit rate                                 : 49 b/s
Count of elements                        : 1000
Stream size                              : 26.0 KiB (0%)
Language                                 : English
Default                                  : Yes
Forced                                   : No



1 个附件 售价 大小 下载 时间

The.Gateway.2015.1080p.WEB-DL.DD5.1.H264-FGT[btbtt.me].torrent 0 金币 51.66K 882 次 6月前

#1楼
发帖时间:2018-03-13 19:13:11   |   回复数:3
blue23
隐世仙人♂
感谢楼主分享
6月前 #2楼
liyouchai
超凡入圣№
谢谢楼主分享资源
6月前 #3楼
911degrees
隐世仙人♂
非常感谢,谢谢分享
6月前 #4楼
游客组