aoloffline
版主

[2010] [欧美] [惊悚] [WEB-1080P] [BT下载]镜中女孩 The.Girl.in.the.Mirror.2010.1080p.WEB-DL.DD5.1.H264-FGT 3GB

-->

The.Girl.in.the.Mirror.2010.1080p.WEB-DL.DD5.1.H264-FGT

◎译  名 镜中女孩 

◎片  名 The Girl in the Mirror

◎年  代 2010

◎产  地 美国

◎类  别 惊悚/恐怖

◎语  言 英语

◎IMDb评分  3.9/10 from 25 users

◎IMDb链接  http://www.imdb.com/title/tt1701176/

◎BT之家整理 http://www.btbtt.co

◎片  长 101分钟

◎导  演 Oliver Coltress


◎简  介


  Alix rents an off campus house only to discover the previous tenant's soul remains trapped in the mirror.



Video
ID                                       : 1
Format                                   : AVC
Format/Info                              : Advanced Video Codec
Format profile                           : High@L4
Format settings                          : CABAC / 4 Ref Frames
Format settings, CABAC                   : Yes
Format settings, ReFrames                : 4 frames
Codec ID                                 : V_MPEG4/ISO/AVC
Duration                                 : 1 h 28 min
Bit rate                                 : 4 494 kb/s
Width                                    : 1 920 pixels
Height                                   : 1 080 pixels
Display aspect ratio                     : 16:9
Frame rate mode                          : Constant
Frame rate                               : 23.976 (24000/1001) FPS
Color space                              : YUV
Chroma subsampling                       : 4:2:0
Bit depth                                : 8 bits
Scan type                                : Progressive
Bits/(Pixel*Frame)                       : 0.090
Stream size                              : 2.77 GiB (92%)
Title                                    : The.Girl.in.the.Mirror.2010.1080p.WEB-DL.DD5.1.H.264-FGT
Default                                  : Yes
Forced                                   : No
Color range                              : Limited
Color primaries                          : BT.709
Transfer characteristics                 : BT.709
Matrix coefficients                      : BT.709

Audio
ID                                       : 2
Format                                   : AC-3
Format/Info                              : Audio Coding 3
Codec ID                                 : A_AC3
Duration                                 : 1 h 28 min
Bit rate mode                            : Constant
Bit rate                                 : 384 kb/s
Channel(s)                               : 6 channels
Channel positions                        : Front: L C R, Side: L R, LFE
Sampling rate                            : 44.1 kHz
Frame rate                               : 28.711 FPS (1536 SPF)
Bit depth                                : 16 bits
Compression mode                         : Lossy
Stream size                              : 242 MiB (8%)
Title                                    : The.Girl.in.the.Mirror.2010.1080p.WEB-DL.DD5.1.H.264-FGT
Language                                 : English
Service kind                             : Complete Main
Default                                  : Yes
Forced                                   : No

Text
ID                                       : 3
Format                                   : UTF-8
Codec ID                                 : S_TEXT/UTF8
Codec ID/Info                            : UTF-8 Plain Text
Duration                                 : 1 h 25 min
Bit rate                                 : 52 b/s
Count of elements                        : 1224
Stream size                              : 32.7 KiB (0%)
Language                                 : English
Default                                  : Yes
Forced                                   : No

Menu
00:00:00.000                             : en:Chapter 1
00:05:56.000                             : en:Chapter 2
00:10:13.000                             : en:Chapter 3
00:18:43.000                             : en:Chapter 4
00:39:46.000                             : en:Chapter 5
00:50:48.000                             : en:Chapter 6
01:15:27.000                             : en:Chapter 7
01:23:59.000                             : en:Chapter 8





1 个附件 售价 大小 下载 时间

The.Girl.in.the.Mirror.2010.1080p.WEB-DL.DD5.1.H264-FGT[btbtt.me].torrent 0 金币 60.75K 637 次 3月前

#1楼
发帖时间:2018-03-13 19:14:53   |   回复数:3
blue23
隐世仙人♂
感谢楼主分享
3月前 #2楼
liyouchai
超凡入圣№
谢谢楼主分享资源
3月前 #3楼
911degrees
隐世仙人♂
非常感谢,谢谢分享
3月前 #4楼
游客组