aoloffline
版主

[2013] [欧美] [喜剧] [WEB-1080P] [BT下载]杰克平方 Jake.Squared.2013.1080p.AMZN.WEBRip.DD5.1.x264-QOQ 5.5GB

-->

Jake.Squared.2013.1080p.AMZN.WEBRip.DD5.1.x264-QOQ

◎译  名 杰克平方

◎片  名 Jake Squared

◎年  代 2013

◎产  地 美国

◎类  别 剧情/喜剧

◎语  言 英语

◎上映日期 2014-08-15

◎IMDb评分  4.5/10 from 291 users

◎IMDb链接  http://www.imdb.com/title/tt2314374/

◎BT之家整理 http://www.btbtt.co

◎导  演 Howard Goldberg

◎主  演 Brooke Newton

      迈克·沃格尔 Mike Vogel

      詹妮弗·杰森·李 Jennifer Jason Leigh

      丽亚娜·莱伯拉托 Liana Liberato


◎简  介


  Jake Klein| 50| sets out to make a movie. He hires an actor to play himself and throws a big party. His idea is to shoot the heck out of it and see what he gets.But| everything spins out of control as different| unexpected people show up. Old loves are there. New loves are there. His dead father| his mother when she wasyoung| his kids| his ex-wife. Even his younger selves| Jake at 40| Jake at 30 and Jake at 17| are there| too! And every one of them has tons of advice on how to fixhis screwed up life. Jake's head reels as he staggers through what's either a mystical experience| a nervous breakdown... or both!


Video
ID                                       : 1
Format                                   : AVC
Format/Info                              : Advanced Video Codec
Format profile                           : High@L4
Format settings                          : CABAC / 4 Ref Frames
Format settings, CABAC                   : Yes
Format settings, ReFrames                : 4 frames
Codec ID                                 : V_MPEG4/ISO/AVC
Duration                                 : 1 h 41 min
Bit rate mode                            : Variable
Bit rate                                 : 7 210 kb/s
Maximum bit rate                         : 15.0 Mb/s
Width                                    : 1 920 pixels
Height                                   : 1 080 pixels
Display aspect ratio                     : 16:9
Frame rate mode                          : Constant
Frame rate                               : 23.976 (24000/1001) FPS
Color space                              : YUV
Chroma subsampling                       : 4:2:0
Bit depth                                : 8 bits
Scan type                                : Progressive
Bits/(Pixel*Frame)                       : 0.145
Stream size                              : 5.10 GiB (92%)
Default                                  : Yes
Forced                                   : No
Color range                              : Limited
Color primaries                          : BT.709
Transfer characteristics                 : BT.709
Matrix coefficients                      : BT.709

Audio
ID                                       : 2
Format                                   : E-AC-3
Format/Info                              : Enhanced Audio Coding 3
Codec ID                                 : A_EAC3
Duration                                 : 1 h 41 min
Bit rate mode                            : Constant
Bit rate                                 : 640 kb/s
Channel(s)                               : 6 channels
Channel positions                        : Front: L C R, Side: L R, LFE
Sampling rate                            : 48.0 kHz
Frame rate                               : 187.500 FPS (256 SPF)
Compression mode                         : Lossy
Stream size                              : 464 MiB (8%)
Language                                 : English
Service kind                             : Complete Main
Default                                  : Yes
Forced                                   : No

Text #1
ID                                       : 3
Format                                   : UTF-8
Codec ID                                 : S_TEXT/UTF8
Codec ID/Info                            : UTF-8 Plain Text
Duration                                 : 1 h 40 min
Bit rate                                 : 74 b/s
Count of elements                        : 2023
Stream size                              : 54.9 KiB (0%)
Language                                 : English
Default                                  : No
Forced                                   : No

Text #2
ID                                       : 4
Format                                   : UTF-8
Codec ID                                 : S_TEXT/UTF8
Codec ID/Info                            : UTF-8 Plain Text
Duration                                 : 1 h 40 min
Bit rate                                 : 80 b/s
Count of elements                        : 2154
Stream size                              : 59.2 KiB (0%)
Title                                    : SDH
Language                                 : English
Default                                  : No
Forced                                   : No



1 个附件 售价 大小 下载 时间

Jake.Squared.2013.1080p.AMZN.WEBRip.DD5.1.x264-QOQ[btbtt.me].torrent 0 金币 56.09K 441 次 2月前

#1楼
发帖时间:2018-03-13 22:03:00   |   回复数:3
blue23
隐世仙人♂
感谢楼主分享
2月前 #2楼
liyouchai
超凡入圣№
谢谢楼主分享资源
2月前 #3楼
911degrees
超凡入圣№
非常感谢,谢谢分享
2月前 #4楼
游客组