aoloffline
版主

[2011] [欧美] [喜剧] [WEB-1080P] [BT下载]征服者劳埃德 Lloyd.the.Conqueror.2011.1080p.AMZN.WEBRip.DD2.0.x264-QOQ 4.9GB

-->

Lloyd.the.Conqueror.2011.1080p.AMZN.WEBRip.DD2.0.x264-QOQ

◎译  名 征服者劳埃德

◎片  名 Lloyd The Conqueror

◎年  代 2011

◎产  地 Canada

◎语  言 英语

◎BT之家整理 http://www.btbtt.co

◎导  演 Michael Peterson

◎主  演 Brian Posehn

      Mike Smith

      Evan Williams


◎简  介


  Three male college students| must do battle against Derek the Unholy| a dark wizard who is determined to hold onto his title as champion of the Larpers.


Video
ID                                       : 1
Format                                   : AVC
Format/Info                              : Advanced Video Codec
Format profile                           : High@L4
Format settings                          : CABAC / 4 Ref Frames
Format settings, CABAC                   : Yes
Format settings, ReFrames                : 4 frames
Codec ID                                 : V_MPEG4/ISO/AVC
Duration                                 : 1 h 37 min
Bit rate mode                            : Variable
Bit rate                                 : 7 061 kb/s
Maximum bit rate                         : 15.0 Mb/s
Width                                    : 1 920 pixels
Height                                   : 1 080 pixels
Display aspect ratio                     : 16:9
Frame rate mode                          : Constant
Frame rate                               : 23.976 (24000/1001) FPS
Color space                              : YUV
Chroma subsampling                       : 4:2:0
Bit depth                                : 8 bits
Scan type                                : Progressive
Bits/(Pixel*Frame)                       : 0.142
Stream size                              : 4.83 GiB (97%)
Default                                  : Yes
Forced                                   : No
Color range                              : Limited
Color primaries                          : BT.709
Transfer characteristics                 : BT.709
Matrix coefficients                      : BT.709

Audio
ID                                       : 2
Format                                   : E-AC-3
Format/Info                              : Enhanced Audio Coding 3
Codec ID                                 : A_EAC3
Duration                                 : 1 h 37 min
Bit rate mode                            : Constant
Bit rate                                 : 224 kb/s
Channel(s)                               : 2 channels
Channel positions                        : Front: L R
Sampling rate                            : 48.0 kHz
Frame rate                               : 187.500 FPS (256 SPF)
Compression mode                         : Lossy
Stream size                              : 157 MiB (3%)
Language                                 : English
Service kind                             : Complete Main
Default                                  : Yes
Forced                                   : No

Text #1
ID                                       : 3
Format                                   : UTF-8
Codec ID                                 : S_TEXT/UTF8
Codec ID/Info                            : UTF-8 Plain Text
Duration                                 : 1 h 37 min
Bit rate                                 : 76 b/s
Count of elements                        : 1962
Stream size                              : 54.8 KiB (0%)
Language                                 : English
Default                                  : No
Forced                                   : No

Text #2
ID                                       : 4
Format                                   : UTF-8
Codec ID                                 : S_TEXT/UTF8
Codec ID/Info                            : UTF-8 Plain Text
Duration                                 : 1 h 37 min
Bit rate                                 : 78 b/s
Count of elements                        : 2052
Stream size                              : 56.0 KiB (0%)
Title                                    : SDH
Language                                 : English
Default                                  : No
Forced                                   : No



1 个附件 售价 大小 下载 时间

Lloyd.the.Conqueror.2011.1080p.AMZN.WEBRip.DD2.0.x264-QOQ[btbtt.me].torrent 0 金币 100.24K 539 次 7月前

#1楼
发帖时间:2018-03-13 22:08:04   |   回复数:4
blue23
隐世仙人♂
感谢楼主分享
7月前 #2楼
liang3109
武林高手
多谢楼主分享。
7月前 #3楼
liyouchai
超凡入圣№
谢谢楼主分享资源
7月前 #4楼
911degrees
隐世仙人♂
非常感谢,谢谢分享
7月前 #5楼
游客组