aoloffline
版主

[2018] [欧美] [动画] [WEB-1080P] [BT下载]弹力男孩:突围 Stretch.Armstrong.The.Breakout.2018.1080p.WEB.x264-AMRAP 1.5GB

-->

Stretch.Armstrong.The.Breakout.2018.1080p.WEB.x264-AMRAP

◎译  名 弹力男孩:突围

◎片  名 Stretch Armstrong The Breakout

◎年  代 2018

◎产  地 美国

◎类  别 动画

◎语  言 英语

◎IMDb评分  N/A

◎IMDb链接  https://www.imdb.com/title/tt8069048/

◎BT之家整理 http://www.btbtt.co

◎片  长 22分钟

◎导  演 Victor Cook, Collette Sunderman 

◎主  演 Ogie Banks ... Ricardo Perez / Omni-Mass, Gangster (voice)

      Clancy Brown ... Smokestack, Opera Patron, News Announcer (voice)

      Yvette Nicole Brown ... Quick Charge, Stranded Citizen (voice)

      Gary Cole ... Mark Armstrong (voice)

      Nazneen Contractor ... Rita Dashti / Blindstrike (voice)




◎简  介


  


Video
ID                                       : 1
Format                                   : AVC
Format/Info                              : Advanced Video Codec
Format profile                           : Main@L4
Format settings                          : CABAC / 3 Ref Frames
Format settings, CABAC                   : Yes
Format settings, ReFrames                : 3 frames
Codec ID                                 : V_MPEG4/ISO/AVC
Duration                                 : 45 min 47 s
Bit rate mode                            : Variable
Bit rate                                 : 4 640 kb/s
Maximum bit rate                         : 6 960 kb/s
Width                                    : 1 920 pixels
Height                                   : 1 080 pixels
Display aspect ratio                     : 16:9
Frame rate mode                          : Constant
Frame rate                               : 23.976 (24000/1001) FPS
Color space                              : YUV
Chroma subsampling                       : 4:2:0
Bit depth                                : 8 bits
Scan type                                : Progressive
Bits/(Pixel*Frame)                       : 0.093
Stream size                              : 1.42 GiB (90%)
Writing library                          : x264 core 148 r2715 7e75228
Encoding settings                        : cabac=1 / ref=3 / deblock=1:0:0 / analyse=0x1:0x111 / me=umh / subme=10 / psy=1 / psy_rd=1.00:0.00 / mixed_ref=1 / me_range=24 / chroma_me=1 / trellis=2 / 8x8dct=0 / cqm=0 / deadzone=21,11 / fast_pskip=1 / chroma_qp_offset=-2 / threads=8 / lookahead_threads=1 / sliced_threads=0 / nr=0 / decimate=1 / interlaced=0 / bluray_compat=0 / stitchable=1 / constrained_intra=0 / bframes=2 / b_pyramid=0 / b_adapt=2 / b_bias=0 / direct=3 / weightb=1 / open_gop=0 / weightp=2 / keyint=48 / keyint_min=25 / scenecut=0 / intra_refresh=0 / rc_lookahead=48 / rc=2pass / mbtree=1 / bitrate=4640 / ratetol=1.0 / qcomp=0.50 / qpmin=6 / qpmax=51 / qpstep=4 / cplxblur=20.0 / qblur=0.5 / vbv_maxrate=6960 / vbv_bufsize=9280 / nal_hrd=vbr / filler=0 / ip_ratio=1.40 / aq=1:1.00
Default                                  : Yes
Forced                                   : No

Audio
ID                                       : 2
Format                                   : AC-3
Format/Info                              : Audio Coding 3
Codec ID                                 : A_AC3
Duration                                 : 45 min 47 s
Bit rate mode                            : Constant
Bit rate                                 : 384 kb/s
Channel(s)                               : 6 channels
Channel positions                        : Front: L C R, Side: L R, LFE
Sampling rate                            : 48.0 kHz
Frame rate                               : 31.250 FPS (1536 SPF)
Bit depth                                : 16 bits
Compression mode                         : Lossy
Stream size                              : 126 MiB (8%)
Service kind                             : Complete Main
Default                                  : Yes
Forced                                   : No

Text #1
ID                                       : 3
Format                                   : UTF-8
Codec ID                                 : S_TEXT/UTF8
Codec ID/Info                            : UTF-8 Plain Text
Title                                    : English
Language                                 : English
Default                                  : No
Forced                                   : No

Text #2
ID                                       : 4
Format                                   : UTF-8
Codec ID                                 : S_TEXT/UTF8
Codec ID/Info                            : UTF-8 Plain Text
Title                                    : French
Language                                 : French
Default                                  : No
Forced                                   : No

Text #3
ID                                       : 5
Format                                   : UTF-8
Codec ID                                 : S_TEXT/UTF8
Codec ID/Info                            : UTF-8 Plain Text
Title                                    : German
Language                                 : German
Default                                  : No
Forced                                   : No

Text #4
ID                                       : 6
Format                                   : UTF-8
Codec ID                                 : S_TEXT/UTF8
Codec ID/Info                            : UTF-8 Plain Text
Title                                    : European Spanish
Language                                 : Spanish
Default                                  : No
Forced                                   : No




1 个附件 售价 大小 下载 时间

Stretch.Armstrong.The.Breakout.2018.1080p.WEB.x264-AMRAP[btbtt.me].torrent 0 金币 32.11K 560 次 5月前

#1楼
发帖时间:2018-03-13 22:15:11   |   回复数:4
blue23
隐世仙人♂
感谢楼主分享
5月前 #2楼
liang3109
武林高手
多谢楼主分享。
5月前 #3楼
liyouchai
超凡入圣№
谢谢楼主分享资源
5月前 #4楼
911degrees
隐世仙人♂
非常感谢,谢谢分享
5月前 #5楼
游客组