aoloffline
版主

[2011] [欧美] [剧情] [BD-1080P] [BT下载]点球成金 Moneyball.2011.REMASTERED.1080p.BluRay.x264.DTS-FGT 18GB

-->

Moneyball.2011.REMASTERED.1080p.BluRay.x264.DTS-FGT

◎译  名 点球成金/魔球(港/台)/钱与球/金球

◎片  名 Moneyball

◎年  代 2011

◎产  地 美国

◎类  别 剧情/传记/运动

◎语  言 英语

◎上映日期 2011-09-23

◎IMDb评分  7.6/10 from 309,001 users

◎IMDb链接  http://www.imdb.com/title/tt1210166/

◎豆瓣评分 8.2/10 from 63,014 users

◎豆瓣链接 https://movie.douban.com/subject/3023164/

◎BT之家整理 http://www.btbtt.me/

◎片  长 133分钟

◎导  演 贝尼特·米勒 Bennett Miller

◎主  演 布拉德·皮特 Brad Pitt

      乔纳·希尔 Jonah Hill

      菲利普·塞默·霍夫曼 Philip Seymour Hoffman

      罗宾·怀特 Robin Wright

      克里斯·帕拉特 Chris Pratt


◎简  介


  在美国职业棒球大联盟MLB中,比利(布拉德•皮特 Brad Pitt 饰)所属的奥克兰运动家队败给了财大气粗的纽约扬基队,这让他深受打击。雪上加霜的是三名主力纷纷被重金挖走,未来的赛季前途渺茫。在管理层会议上,大家一头雾水,只有他暗下决心改造球队。一次偶然的机会,他认识了耶鲁大学经济学硕士彼得(乔纳•希尔 Jonah Hill 饰),两者对于球队运营的理念不谋而合。凭借直觉和经验,他仿佛找到了破解金元棒球的钥匙。他聘请彼得作为自己的顾问,一起研究如何打造最高胜率的球队。他们用数学建模的方式,逐渐开始挖掘上垒率的潜在明星,并通过软磨硬泡将他们招致麾下。他们不在乎高层的冷嘲热讽,只是专心地为球队寻找信心和实力的根源,终于新的赛季开始了……

  影片改编自迈克尔•刘易斯的《魔球—逆境中致胜的智慧》(Moneyball: The Art of Winning an Unfair Game)。


◎获奖情况


  第84届奥斯卡金像奖  (2012)

  最佳影片(提名) Rachael Horovitz / 迈克·德·鲁卡 / 布拉德·皮特

  最佳男主角(提名) 布拉德·皮特

  最佳男配角(提名) 乔纳·希尔

  最佳改编剧本(提名) Stan Chervin / 艾伦·索金 / 斯蒂文·泽里安

  最佳剪辑(提名) Christopher Tellefsen

  最佳混音(提名) David Giammarco / Deb Adair / Ed Novick / Ron Bochar


  第69届金球奖  (2012)

  电影类 最佳剧情片(提名)

  电影类 剧情片最佳男主角(提名) 布拉德·皮特

  电影类 最佳男配角(提名) 乔纳·希尔

  电影类 最佳编剧(提名) 斯蒂文·泽里安 / 艾伦·索金


  第35届日本电影学院奖  (2012)

  最佳外语片(提名)


  第77届纽约影评人协会奖  (2011)

  最佳男主角 布拉德·皮特

  最佳剧本 斯蒂文·泽里安 / 艾伦·索金


  第17届美国评论家选择电影奖  (2012)

  最佳影片(提名)

  最佳男主角(提名) 布拉德·皮特

  最佳改编剧本 斯蒂文·泽里安 / 艾伦·索金 / Stan Chervin


  第12届美国电影学会奖  (2011)

  年度佳片


  第10届华盛顿影评人协会奖  (2011)

  最佳男主角(提名) 布拉德·皮特

  最佳改编剧本(提名) 斯蒂文·泽里安 / 艾伦·索金


  第32届波士顿影评人协会奖  (2011)

  最佳男主角 布拉德·皮特

  最佳剧本 斯蒂文·泽里安 / 艾伦·索金


  第16届圣地亚哥影评人协会奖  (2011)

  最佳男主角(提名) 布拉德·皮特

  最佳改编剧本 斯蒂文·泽里安 / 艾伦·索金


  第24届芝加哥影评人协会奖  (2011)

  最佳改编剧本 斯蒂文·泽里安 / 艾伦·索金


  第45届堪萨斯影评人协会奖  (2012)

  最佳改编剧本 斯蒂文·泽里安 / 艾伦·索金


  第11届凤凰城影评人协会奖  (2011)

  最佳男主角(提名) 布拉德·皮特

  最佳男配角(提名) 乔纳·希尔

  最佳原创配乐(提名) 麦切尔·丹纳

  十佳影片


  第20届东南影评人协会奖  (2011)

  最佳改编剧本(提名) 斯蒂文·泽里安 / 艾伦·索金

  十大佳片


  第36届报知映画赏  (2011)

  海外作品奖 贝尼特·米勒


  第2届豆瓣电影鑫像奖  (2012)

  鑫豆单元 最佳男演员(外语) 布拉德·皮特


Video
ID                                       : 1
Format                                   : AVC
Format/Info                              : Advanced Video Codec
Format profile                           : [email protected]
Format settings, CABAC                   : Yes
Format settings, ReFrames                : 4 frames
Codec ID                                 : V_MPEG4/ISO/AVC
Duration                                 : 2h 13mn
Bit rate                                 : 18.0 Mbps
Width                                    : 1 920 pixels
Height                                   : 1 038 pixels
Display aspect ratio                     : 1.85:1
Frame rate mode                          : Constant
Frame rate                               : 23.976 fps
Color space                              : YUV
Chroma subsampling                       : 4:2:0
Bit depth                                : 8 bits
Scan type                                : Progressive
Bits/(Pixel*Frame)                       : 0.377
Stream size                              : 16.4 GiB (90%)
Title                                    : [email protected]
Writing library                          : x264 core 138 r2358 9e941d1
Encoding settings                        : cabac=1 / ref=4 / deblock=1:-3:-3 / analyse=0x3:0x113 / me=umh / subme=10 / psy=1 / psy_rd=1.05:0.10 / mixed_ref=1 / me_range=48 / chroma_me=1 / trellis=2 / 8x8dct=1 / cqm=0 / deadzone=21,11 / fast_pskip=0 / chroma_qp_offset=-2 / threads=12 / lookahead_threads=1 / sliced_threads=0 / nr=0 / decimate=1 / interlaced=0 / bluray_compat=0 / constrained_intra=0 / bframes=6 / b_pyramid=2 / b_adapt=2 / b_bias=0 / direct=3 / weightb=1 / open_gop=0 / weightp=2 / keyint=250 / keyint_min=23 / scenecut=40 / intra_refresh=0 / rc_lookahead=40 / rc=2pass / mbtree=0 / bitrate=18000 / ratetol=2.0 / qcomp=0.70 / qpmin=0 / qpmax=69 / qpstep=4 / cplxblur=20.0 / qblur=0.5 / vbv_maxrate=40000 / vbv_bufsize=30000 / nal_hrd=none / ip_ratio=1.40 / pb_ratio=1.30 / aq=2:1.00
Language                                 : English
Default                                  : Yes
Forced                                   : No

Audio
ID                                       : 2
Format                                   : DTS
Format/Info                              : Digital Theater Systems
Mode                                     : 16
Format settings, Endianness              : Big
Codec ID                                 : A_DTS
Duration                                 : 2h 13mn
Bit rate mode                            : Constant
Bit rate                                 : 1 509 Kbps
Channel(s)                               : 6 channels
Channel positions                        : Front: L C R, Side: L R, LFE
Sampling rate                            : 48.0 KHz
Frame rate                               : 93.750 fps (512 spf)
Bit depth                                : 24 bits
Compression mode                         : Lossy
Stream size                              : 1.40 GiB (8%)
Title                                    : English DTS 5.1 1509Kbps
Language                                 : English
Default                                  : Yes
Forced                                   : No

Menu
00:00:00.000                             : en:00:00:00.000
00:08:25.130                             : en:00:08:25.130
00:13:33.479                             : en:00:13:33.479
00:23:35.706                             : en:00:23:35.706
00:29:36.233                             : en:00:29:36.233
00:39:50.680                             : en:00:39:50.680
00:49:55.868                             : en:00:49:55.868
00:59:02.080                             : en:00:59:02.080
01:08:09.919                             : en:01:08:09.919
01:17:32.523                             : en:01:17:32.523
01:26:20.300                             : en:01:26:20.300
01:34:40.091                             : en:01:34:40.091
01:38:59.559                             : en:01:38:59.559
01:45:35.579                             : en:01:45:35.579
01:51:21.174                             : en:01:51:21.174
01:58:41.281                             : en:01:58:41.281






1 个附件 售价 大小 下载 时间

Moneyball.2011.REMASTERED.1080p.BluRay.x264.DTS-FGT[btbtt.me].torrent 0 金币 91.33K 2177 次 2018-3-23

#1楼
发帖时间:2018-03-23 10:50:17   |   回复数:3
blue23
隐世仙人♂
感谢楼主分享
2018-3-23 #2楼
liyouchai
隐世仙人♂
谢谢楼主分享资源
2018-3-23 #3楼
911degrees
隐世仙人♂
非常感谢,谢谢分享
2018-3-24 #4楼
游客组