aoloffline
超凡入圣№

[2018] [欧美] [奇幻] [WEB-1080P] [BT下载]我杀死了巨人 I.Kill.Giants.2017.1080p.AMZN.WEBRip.DDP5.1.x264-NTG 3.5GB

-->

I.Kill.Giants.2017.1080p.AMZN.WEBRip.DDP5.1.x264-NTG

◎译  名 我杀死了巨人/巨人女杀手

◎片  名 I Kill Giants

◎年  代 2017

◎产  地 英国/美国

◎类  别 剧情/奇幻/惊悚

◎语  言 英语

◎上映日期 2017-09-09(多伦多电影节)/2018-03-23(美国)

◎IMDb评分  7.7/10 from 920 users

◎IMDb链接  http://www.imdb.com/title/tt4547194/

◎BT之家整理 http://www.btbtt.me/

◎片  长 104分钟

◎导  演 安德斯·瓦尔特 Anders Walter

◎主  演 佐伊·索尔达娜 Zoe Saldana

      伊莫琴·普茨 Imogen Poots

      詹妮弗·艾莉 Jennifer Ehle

      麦迪逊·沃尔夫 Madison Wolfe

      诺埃尔·克拉克 Noel Clarke

      Ciara O'Callaghan

      Sydney Wade

      Rory Jackson


◎简  介


  安德斯·瓦尔特执导的奇幻惊悚片[我杀巨人]曝光首款海报。该片由佐伊·索尔达娜、伊莫琴·普茨([房车])、麦迪逊·沃尔夫([招魂2])等主演。故事讲述述芭芭拉(麦迪逊·沃尔夫饰)选择逃离学校和家庭生活,因为这样可以回到神奇的巨人世界。该片今年9月亮相多伦多电影节,北美预计今年上映。


Video
ID                                       : 1
Format                                   : AVC
Format/Info                              : Advanced Video Codec
Format profile                           : [email protected]
Format settings                          : CABAC / 4 Ref Frames
Format settings, CABAC                   : Yes
Format settings, ReFrames                : 4 frames
Codec ID                                 : V_MPEG4/ISO/AVC
Duration                                 : 1 h 46 min
Bit rate mode                            : Variable
Bit rate                                 : 4 172 kb/s
Maximum bit rate                         : 15.0 Mb/s
Width                                    : 1 920 pixels
Height                                   : 816 pixels
Display aspect ratio                     : 2.35:1
Frame rate mode                          : Constant
Frame rate                               : 23.976 (24000/1001) FPS
Color space                              : YUV
Chroma subsampling                       : 4:2:0
Bit depth                                : 8 bits
Scan type                                : Progressive
Bits/(Pixel*Frame)                       : 0.111
Stream size                              : 3.10 GiB (87%)
Default                                  : Yes
Forced                                   : No
Color range                              : Limited
Color primaries                          : BT.709
Transfer characteristics                 : BT.709
Matrix coefficients                      : BT.709

Audio
ID                                       : 2
Format                                   : E-AC-3
Format/Info                              : Enhanced Audio Coding 3
Codec ID                                 : A_EAC3
Duration                                 : 1 h 46 min
Bit rate mode                            : Constant
Bit rate                                 : 640 kb/s
Channel(s)                               : 6 channels
Channel positions                        : Front: L C R, Side: L R, LFE
Sampling rate                            : 48.0 kHz
Frame rate                               : 187.500 FPS (256 SPF)
Compression mode                         : Lossy
Stream size                              : 488 MiB (13%)
Language                                 : English
Service kind                             : Complete Main
Default                                  : Yes
Forced                                   : No

Text #1
ID                                       : 3
Format                                   : UTF-8
Codec ID                                 : S_TEXT/UTF8
Codec ID/Info                            : UTF-8 Plain Text
Duration                                 : 1 h 41 min
Bit rate                                 : 32 b/s
Count of elements                        : 905
Stream size                              : 24.0 KiB (0%)
Language                                 : English
Default                                  : No
Forced                                   : No

Text #2
ID                                       : 4
Format                                   : UTF-8
Codec ID                                 : S_TEXT/UTF8
Codec ID/Info                            : UTF-8 Plain Text
Duration                                 : 1 h 45 min
Bit rate                                 : 33 b/s
Count of elements                        : 1019
Stream size                              : 26.2 KiB (0%)
Title                                    : SDH
Language                                 : English
Default                                  : No
Forced                                   : No

Text #3
ID                                       : 5
Format                                   : UTF-8
Codec ID                                 : S_TEXT/UTF8
Codec ID/Info                            : UTF-8 Plain Text
Duration                                 : 1 h 33 min
Bit rate                                 : 36 b/s
Count of elements                        : 904
Stream size                              : 25.1 KiB (0%)
Language                                 : Spanish
Default                                  : No
Forced                                   : No





1 个附件 售价 大小 下载 时间

I.Kill.Giants.2017.1080p.AMZN.WEBRip.DDP5.1.x264-NTG[btbtt.me].torrent 0 金币 72.15K 5114 次 2018-3-23

#1楼
发帖时间:2018-03-23 17:33:52   |   回复数:5
blue23
隐世仙人♂
感谢楼主分享
2018-3-23 #2楼
liyouchai
隐世仙人♂
谢谢楼主分享资源
2018-3-23 #3楼
liang3109
武林高手
多谢楼主分享。
2018-3-24 #4楼
911degrees
隐世仙人♂
非常感谢,谢谢分享
2018-3-24 #5楼
leeansonxxx
江湖小虾
多谢楼主,分享资源!
2018-3-29 #6楼
游客组