aoloffline
版主

[更 早] [香港] [动作] [BD-1080P] [BT下载]警察故事 Police.Story.1985.1080p.BluRay.x264-aBD 6.56GB

-->

Police.Story.1985.1080p.BluRay.x264-aBD

◎译  名 PoliceStory

◎片  名 警察故事

◎年  代 1985

◎产  地 香港

◎类  别 动作/喜剧/惊悚/犯罪

◎语  言 粤语

◎上映日期 1985-12-14(香港)

◎IMDb评分  7.6/10 from 22,207 users

◎IMDb链接  http://www.imdb.com/title/tt0089374/

◎豆瓣评分 7.7/10 from 47,026 users

◎豆瓣链接 https://movie.douban.com/subject/1400868/

◎BT之家整理 http://www.btbtt.me/

◎片  长 101 分钟/106 分钟(日本加长版)/99 分钟(英国)/90 分钟(美国)

◎导  演 成龙

◎主  演 成龙

      林青霞

      张曼玉

      董骠 Bill Tung

      楚原 Yuen Chor

      曹查理 Charlie Cho

      汤镇业 Ken Tong

      刘雅丽 Alice Lau

      卢敏仪 Money Lo Man-Yee

      林国斌 Ben Lam


◎简  介


  受过特警训练的警察陈家驹(成龙)为人正直办案拼命,时常将女友(张曼玉)忽略。某次围剿行动中陈家驹拘捕了大毒枭朱滔,但因证人(朱滔的秘书)莎莲娜(林青霞)的突然失踪,未能将其绳之于法,陈家驹因此受降职处分。事后含恨在心的朱滔为了报复陈家驹,设计将其诱至囚禁莎莲娜的别墅,并派手下杀死一名警察嫁祸其身,令陈家驹在警方的通辑令下只能四处流亡。

  而侥幸逃脱的莎莲娜明白到朱滔为人不择手段的本质,为求自保,冒险潜入朱滔办公室偷得证据,却被其手下追杀至商场,陈家驹及时赶到,与朱滔手下展开激战。


◎获奖情况


  第5届香港电影金像奖  (1986)

  最佳电影

  最佳导演(提名) 成龙

  最佳男主角(提名) 成龙

  最佳女主角(提名) 林青霞

  最佳摄影(提名) 张耀祖

  最佳剪接(提名) 张耀宗

  最佳动作设计



Video
ID                                       : 1
Format                                   : AVC
Format/Info                              : Advanced Video Codec
Format profile                           : High@L4.1
Format settings                          : CABAC / 5 Ref Frames
Format settings, CABAC                   : Yes
Format settings, ReFrames                : 5 frames
Codec ID                                 : V_MPEG4/ISO/AVC
Duration                                 : 1 h 39 min
Bit rate                                 : 8 757 kb/s
Width                                    : 1 920 pixels
Height                                   : 824 pixels
Display aspect ratio                     : 2.35:1
Frame rate mode                          : Constant
Frame rate                               : 23.976 (24000/1001) FPS
Color space                              : YUV
Chroma subsampling                       : 4:2:0
Bit depth                                : 8 bits
Scan type                                : Progressive
Bits/(Pixel*Frame)                       : 0.231
Stream size                              : 5.98 GiB (91%)
Writing library                          : x264 core 79 r1332 70f8869
Encoding settings                        : cabac=1 / ref=5 / deblock=1:-1:-1 / analyse=0x3:0x113 / me=umh / subme=7 / psy=1 / psy_rd=1.0:0.0 / mixed_ref=1 / me_range=16 / chroma_me=1 / trellis=2 / 8x8dct=1 / cqm=0 / deadzone=21,11 / chroma_qp_offset=-2 / threads=6 / nr=0 / decimate=1 / mbaff=0 / constrained_intra=0 / bframes=3 / b_pyramid=0 / b_adapt=2 / b_bias=0 / direct=3 / wpredb=1 / wpredp=2 / keyint=250 / keyint_min=25 / scenecut=40 / rc_lookahead=40 / rc=2pass / mbtree=1 / bitrate=8757 / ratetol=1.0 / qcomp=0.60 / qpmin=10 / qpmax=51 / qpstep=4 / cplxblur=20.0 / qblur=0.5 / vbv_maxrate=50000 / vbv_bufsize=50000 / ip_ratio=1.40 / aq=1:1.00
Language                                 : Chinese
Default                                  : Yes
Forced                                   : No

Audio
ID                                       : 2
Format                                   : AC-3
Format/Info                              : Audio Coding 3
Codec ID                                 : A_AC3
Duration                                 : 1 h 39 min
Bit rate mode                            : Constant
Bit rate                                 : 640 kb/s
Channel(s)                               : 6 channels
Channel positions                        : Front: L C R, Side: L R, LFE
Sampling rate                            : 48.0 kHz
Frame rate                               : 31.250 FPS (1536 SPF)
Bit depth                                : 16 bits
Compression mode                         : Lossy
Stream size                              : 457 MiB (7%)
Language                                 : Chinese
Service kind                             : Complete Main
Default                                  : Yes
Forced                                   : No

Text
ID                                       : 3
Format                                   : UTF-8
Codec ID                                 : S_TEXT/UTF8
Codec ID/Info                            : UTF-8 Plain Text
Language                                 : English
Default                                  : Yes
Forced                                   : No





1 个附件 售价 大小 下载 时间

Police.Story.1985.1080p.BluRay.x264-aBD[btbtt.me].torrent 0 金币 66.10K 3409 次 3月前

#1楼
发帖时间:2018-04-16 11:28:04   |   回复数:7
PCHUN
武林高手
Thanks for sharing
3月前 #2楼
liyouchai
超凡入圣№
谢谢楼主分享资源
3月前 #3楼
MovieMania
武林高手
貌似是英语配音音轨
3月前 #4楼
blue23
隐世仙人♂
感谢楼主分享
3月前 #5楼
tanchoohoon
武林盟主
感谢楼主的无私分享!
2月前 #6楼
911degrees
隐世仙人♂
非常感谢,谢谢分享
2月前 #7楼
OOOOO
武林高手
~ 感谢楼主的无私分享 ~
2月前 #8楼
游客组