aoloffline
版主

[更 早] [香港] [动作] [BD-1080P] [BT下载]警察故事2 Police.Story.Part.II.1988.1080p.BluRay.x264-aBD 7.95GB

-->

Police.Story.Part.II.1988.1080p.BluRay.x264-aBD

◎译  名 警察故事续集/警察故事2

◎片  名 警察故事續集

◎年  代 1988

◎产  地 香港

◎类  别 动作/惊悚/喜剧/犯罪

◎语  言 粤语

◎上映日期 1988-08-20(香港)

◎IMDb评分  7.2/10 from 13,494 users

◎IMDb链接  http://www.imdb.com/title/tt0095403/

◎豆瓣评分 7.3/10 from 26,062 users

◎豆瓣链接 https://movie.douban.com/subject/1304726/

◎BT之家整理 http://www.btbtt.me/

◎片  长 101分钟

◎导  演 成龙 Jackie Chan

◎主  演 成龙 Jackie Chan

      张曼玉 Maggie Cheung

      陈国新 Dennis Chan

      楚原 Yuen Chor

      曹查理 Charlie Cho


◎简  介


  英雄警察陈家驹(成龙 饰)又回来了。不过,性格火爆、直言不讳的他这次因为不满意上司放走了一个极其危险的重犯而和上司吵翻了,愤然辞职。脱离了警察生活的家驹和女友去旅行期间,一间电话公司遭到了炸弹恐吓,本性难移的家驹马上赶到了现场,着手调查案件。

  岂料一波未平,一波又起。这个炸弹狂徒竟然炸毁了警局的大门,还绑架了家驹的女友,要求家驹携带大量赎款前往货仓交换人质。当家驹身带巨款抵达货仓时,发现这里已经布满了炸弹……


◎获奖情况


  第25届台北金马影展  (1988)

  金马奖 最佳剧情片(提名)

  金马奖 最佳美术设计 黄锐民


  第8届香港电影金像奖  (1989)

  最佳动作设计



Video
ID                                       : 1
Format                                   : AVC
Format/Info                              : Advanced Video Codec
Format profile                           : High@L4.1
Format settings                          : CABAC / 5 Ref Frames
Format settings, CABAC                   : Yes
Format settings, ReFrames                : 5 frames
Codec ID                                 : V_MPEG4/ISO/AVC
Duration                                 : 2 h 1 min
Bit rate                                 : 8 729 kb/s
Width                                    : 1 920 pixels
Height                                   : 816 pixels
Display aspect ratio                     : 2.35:1
Frame rate mode                          : Constant
Frame rate                               : 23.976 (24000/1001) FPS
Color space                              : YUV
Chroma subsampling                       : 4:2:0
Bit depth                                : 8 bits
Scan type                                : Progressive
Bits/(Pixel*Frame)                       : 0.232
Stream size                              : 7.25 GiB (91%)
Writing library                          : x264 core 80 r1369 ec8e586
Encoding settings                        : cabac=1 / ref=5 / deblock=1:-1:-1 / analyse=0x3:0x113 / me=umh / subme=7 / psy=1 / psy_rd=1.0:0.0 / mixed_ref=1 / me_range=16 / chroma_me=1 / trellis=2 / 8x8dct=1 / cqm=0 / deadzone=21,11 / fast_pskip=1 / chroma_qp_offset=-2 / threads=12 / sliced_threads=0 / nr=0 / decimate=1 / mbaff=0 / constrained_intra=0 / bframes=3 / b_pyramid=0 / b_adapt=2 / b_bias=0 / direct=3 / wpredb=1 / wpredp=2 / keyint=250 / keyint_min=25 / scenecut=40 / rc_lookahead=40 / rc=2pass / mbtree=1 / bitrate=8729 / ratetol=1.0 / qcomp=0.60 / qpmin=10 / qpmax=51 / qpstep=4 / cplxblur=20.0 / qblur=0.5 / vbv_maxrate=50000 / vbv_bufsize=50000 / ip_ratio=1.40 / aq=1:1.00
Language                                 : Chinese
Default                                  : Yes
Forced                                   : No

Audio
ID                                       : 2
Format                                   : AC-3
Format/Info                              : Audio Coding 3
Codec ID                                 : A_AC3
Duration                                 : 2 h 1 min
Bit rate mode                            : Constant
Bit rate                                 : 640 kb/s
Channel(s)                               : 6 channels
Channel positions                        : Front: L C R, Side: L R, LFE
Sampling rate                            : 48.0 kHz
Frame rate                               : 31.250 FPS (1536 SPF)
Bit depth                                : 16 bits
Compression mode                         : Lossy
Stream size                              : 556 MiB (7%)
Language                                 : Chinese
Service kind                             : Complete Main
Default                                  : Yes
Forced                                   : No

Text
ID                                       : 3
Format                                   : UTF-8
Codec ID                                 : S_TEXT/UTF8
Codec ID/Info                            : UTF-8 Plain Text
Language                                 : English
Default                                  : Yes
Forced                                   : No




1 个附件 售价 大小 下载 时间

Police.Story.Part.II.1988.1080p.BluRay.x264-aBD[btbtt.me].torrent 0 金币 79.97K 2163 次 7天前

#1楼
发帖时间:2018-04-16 11:29:14   |   回复数:5
PCHUN
武林高手
Thanks for sharing
7天前 #2楼
liyouchai
超凡入圣№
谢谢楼主分享资源
7天前 #3楼
chulps
一代宗师
~ 感谢分享 ~
7天前 #4楼
blue23
隐世仙人♂
感谢楼主分享
6天前 #5楼
tanchoohoon
武林盟主
感谢楼主的无私分享!
1天前 #6楼
游客组