aoloffline
版主

[2018] [韩国] [惊悚] [HDTV/HDrip] [BT下载]红雀/红雀特工[韩版]Red.Sparrow.2018.720p.HDRip.x264.AAC2.0-STU 3.4GB

-->

Red.Sparrow.2018.720p.KORSUB.HDRip.x264.AAC2.0-STUTTERSHIT

◎译  名 红雀/红雀特工(港)/红色麻雀/红燕子/红麻雀/朱雀

◎片  名 Red Sparrow

◎年  代 2018

◎产  地 美国

◎类  别 剧情/悬疑/惊悚

◎语  言 英语/俄语

◎上映日期 2018-03-02(美国)

◎IMDb评分  6.8/10 from 36,086 users

◎IMDb链接  http://www.imdb.com/title/tt2873282/

◎豆瓣评分 6.5/10 from 2,505 users

◎豆瓣链接 https://movie.douban.com/subject/25704492/

◎BT之家整理 http://www.btbtt.me/

◎片  长 139分钟

◎导  演 弗朗西斯·劳伦斯 Francis Lawrence

◎主  演 詹妮弗·劳伦斯 Jennifer Lawrence

      乔尔·埃哲顿 Joel Edgerton

      马提亚斯·修奈尔 Matthias Schoenaerts

      夏洛特·兰普林 Charlotte Rampling

      玛丽·露易斯·帕克 Mary-Louise Parker

      塞伦·希德 Ciarán Hinds

      乔莉·理查德森 Joely Richardson

      比尔·坎普 Bill Camp

      杰瑞米·艾恩斯 Jeremy Irons

      斯科拉·鲁特 Thekla Reuten

      道格拉斯·霍奇斯 Douglas Hodges

      沙基纳·贾弗里 Sakina Jaffrey

      瑟盖·普罗宁 Sergei Polunin

      萨沙·福罗娃 Sasha Frolova

      塞巴斯蒂安·胡克 Sebastian Hülk


◎简  介


  小说《红燕子》2012年六月份出版,讲述了一位当代俄罗斯的美女间谍多米尼卡·叶戈罗娃(Dominika Egorova )在不情愿的情况下被克格勃训练成为一名“燕子”(克格勃色情间谍的代号,男性称为乌鸦),之后被派去勾引一名美国的中情局特工内森尼尔·纳什(Nathaniel Nash)以获取美国打入俄罗斯内部的间谍名单。然而多米尼卡与纳什这两个年轻人却碰撞出了爱情的火花,之后多米尼卡为了报复那些把她训练成“燕子”的同僚,主动选择成为一名为中情局服务的双重间谍。在她的帮助下,俄罗斯安插在美国华盛顿和军方的高级间谍纷纷被揪了出来,而她也将排除万难,重回莫斯科,成为普京身边的美国眼线……


Video
ID                                       : 1
Format                                   : AVC
Format/Info                              : Advanced Video Codec
Format profile                           : High@L4.1
Format settings                          : CABAC / 4 Ref Frames
Format settings, CABAC                   : Yes
Format settings, ReFrames                : 4 frames
Codec ID                                 : avc1
Codec ID/Info                            : Advanced Video Coding
Duration                                 : 2 h 15 min
Bit rate                                 : 3 500 kb/s
Width                                    : 1 280 pixels
Height                                   : 538 pixels
Display aspect ratio                     : 2.40:1
Original display aspect ratio            : 2.40:1
Frame rate mode                          : Constant
Frame rate                               : 29.970 (29970/1000) FPS
Color space                              : YUV
Chroma subsampling                       : 4:2:0
Bit depth                                : 8 bits
Scan type                                : Progressive
Bits/(Pixel*Frame)                       : 0.170
Stream size                              : 3.27 GiB (94%)
Title                                    : Red.Sparrow.2018.720p.KORSUB.HDRip.x264.AAC2.0-STUTTERSHIT
Writing library                          : x264 core 148 r2795 aaa9aa8
Encoding settings                        : cabac=1 / ref=4 / deblock=1:0:0 / analyse=0x3:0x113 / me=hex / subme=8 / psy=1 / psy_rd=1.00:0.00 / mixed_ref=1 / me_range=16 / chroma_me=1 / trellis=2 / 8x8dct=1 / cqm=0 / deadzone=21,11 / fast_pskip=1 / chroma_qp_offset=-2 / threads=17 / lookahead_threads=2 / sliced_threads=0 / nr=0 / decimate=1 / interlaced=0 / bluray_compat=0 / constrained_intra=0 / bframes=3 / b_pyramid=2 / b_adapt=1 / b_bias=0 / direct=3 / weightb=1 / open_gop=0 / weightp=2 / keyint=250 / keyint_min=25 / scenecut=40 / intra_refresh=0 / rc_lookahead=50 / rc=abr / mbtree=1 / bitrate=3500 / ratetol=1.0 / qcomp=0.60 / qpmin=0 / qpmax=69 / qpstep=4 / ip_ratio=1.40 / aq=1:1.00

Audio
ID                                       : 2
Format                                   : AAC
Format/Info                              : Advanced Audio Codec
Format profile                           : LC
Codec ID                                 : mp4a-40-2
Duration                                 : 2 h 15 min
Bit rate mode                            : Constant
Bit rate                                 : 224 kb/s
Channel(s)                               : 2 channels
Channel positions                        : Front: L R
Sampling rate                            : 48.0 kHz
Frame rate                               : 46.875 FPS (1024 SPF)
Compression mode                         : Lossy
Stream size                              : 218 MiB (6%)
Title                                    : Red.Sparrow.2018.720p.KORSUB.HDRip.x264.AAC2.0-STUTTERSHIT
Language                                 : English
Default                                  : Yes
Alternate group                          : 1





1 个附件 售价 大小 下载 时间

Red.Sparrow.2018.720p.KORSUB.HDRip.x264.AAC2.0-STUTTERSHIT[btbtt.me].torrent 0 金币 70.28K 1953 次 8月前

#1楼
发帖时间:2018-04-16 11:36:05   |   回复数:3
liyouchai
超凡入圣№
谢谢楼主分享资源
8月前 #2楼
blue23
隐世仙人♂
感谢楼主分享
8月前 #3楼
911degrees
隐世仙人♂
非常感谢,谢谢分享
7月前 #4楼
游客组