_KOOK
武林高手

[2015] [韩国] [剧情] [HDTV/HDrip] [BT下载]未删减.美景之屋2.House With A Good View 2.2015.KR.UNCUT.HDRip.1280x720p.x264.AAC-

-->

未删减.美景之屋2.House With A Good View 2.2015.KR.UNCUT.HDRip.1280x720p.x264.AAC-KOOK.[韩语中字] 3.06GB

 

 

无广告,无水印
不定时做种,保证出种,请耐心等待.

 

 

 

※※※※※※※ 影片信息 ※※※※※※※

◎片   名 美景之屋2
◎译   名 House With A Good View 2
◎年   代 2015
◎国   家 韩国
◎类   别 爱情 / 情色
◎语   言 韩语
◎上映日 期 2015-05-27(韩国)
◎字   幕 简体字幕/繁体字幕
◎豆瓣 评分  4.3/10 from 1736 users
◎视频尺 寸  1280x720p
◎片   长 1.44.26
◎导   演 京硕浩
◎主   演 郑诗贤/朴夏亚/金秀娥/李秀珍

 

 
◎简  介


   金型俊一直找不到工作,老妈介绍去房屋中介,他被老板娘美貌吸引留在房屋中介打工,成为她助手
,后与老板娘和某影视公司女经理打的火热,却发现自己只是被利用.....

 


※※※※※※※ 参数信息 ※※※※※※※

 

General
Unique ID                      : 214756048825599501158024677049537909651 (0xA19082B1408350A29EACB3E2B1A7D393)

Format                         : Matroska
Format version                 : Version 4 / Version 2
File size                      : 3.07 GiB
Duration                       : 1 h 44 min
Overall bit rate               : 4 205 kb/s
Movie name                     : kook
Encoded date                   : UTC 2018-04-18 23:43:19
Writing application            : mkvmerge v9.4.2 ('So High') 64bit
Writing library                : libebml v1.3.4 + libmatroska v1.4.5
Attachments                    : fzlbjw.ttf / fzlbfw.ttf / 正式海报.jpg

Video
ID                             : 1
Format                         : AVC
Format/Info                    : Advanced Video Codec
Format profile                 : [email protected]
Format settings, CABAC         : No
Format settings, ReFrames      : 1 frame
Codec ID                       : V_MPEG4/ISO/AVC
Duration                       : 1 h 44 min
Bit rate                       : 3 999 kb/s
Width                          : 1 280 pixels
Height                         : 720 pixels
Display aspect ratio           : 16:9
Frame rate mode                : Constant
Frame rate                     : 29.970 (30000/1001) FPS
Color space                    : YUV
Chroma subsampling             : 4:2:0
Bit depth                      : 8 bits
Scan type                      : Progressive
Bits/(Pixel*Frame)             : 0.145
Stream size                    : 2.92 GiB (95%)
Default                        : Yes
Forced                         : No

Audio
ID                             : 2
Format                         : AC-3
Format/Info                    : Audio Coding 3
Mode extension                 : CM (complete main)
Format settings, Endianness    : Big
Codec ID                       : A_AC3
Duration                       : 1 h 44 min
Bit rate mode                  : Constant
Bit rate                       : 192 kb/s
Channel(s)                     : 2 channels
Channel positions              : Front: L R
Sampling rate                  : 44.1 kHz
Frame rate                     : 28.711 FPS (1536 spf)
Compression mode               : Lossy
Stream size                    : 143 MiB (5%)
Default                        : Yes
Forced                         : No

Text #1
ID                             : 3
Format                         : ASS
Codec ID                       : S_TEXT/ASS
Codec ID/Info                  : Advanced Sub Station Alpha
Duration                       : 1 h 43 min
Bit rate                       : 79 b/s
Count of elements              : 1001
Compression mode               : Lossless
Stream size                    : 60.4 KiB (0%)
Title                          : 简体字幕
Language                       : Chinese
Default                        : Yes
Forced                         : No

Text #2
ID                             : 4
Format                         : ASS
Codec ID                       : S_TEXT/ASS
Codec ID/Info                  : Advanced Sub Station Alpha
Duration                       : 1 h 43 min
Bit rate                       : 79 b/s
Count of elements              : 1001
Compression mode               : Lossless
Stream size                    : 60.4 KiB (0%)
Title                          : 繁体字幕
Language                       : Chinese
Default                        : No
Forced                         : No

 


1 个附件 售价 大小 下载 时间

美景之屋2.House With A Good View 2.2015.KR.UNCUT.HDRip.1280x720p.x264.AAC-KOOK.[韩语中字].torrent 0 金币 126.93K 14772 次 2018-4-19

#1楼
发帖时间:2018-04-19 18:20:02   |   回复数:4
liyouchai
隐世仙人♂
谢谢楼主分享资源
2018-4-19 #2楼
blue23
隐世仙人♂
感谢楼主分享
2018-4-20 #3楼
tanchoohoon
武林盟主
感谢楼主的无私分享!
2018-4-22 #4楼
911degrees
隐世仙人♂
非常感谢,谢谢分享
2018-4-26 #5楼
游客组