aoloffline
版主

[2011] [欧美] [动作] [BD-1080P] [BT下载]性感女特工/公路杀手 Cat.Run.2011.UNRATED.1080p.BluRay.x264.DTS-FGT 8.75GB

-->

Cat.Run.2011.UNRATED.1080p.BluRay.x264.DTS-FGT

◎译  名 性感女特工/公路杀手

◎片  名 Cat Run

◎年  代 2011

◎国  家 美国

◎类  别 动作/喜剧

◎语  言 英语

◎上映日期 2011-04-01(美国)

◎IMDb评分  5.5/10 from 4,385 users

◎IMDb链接  http://www.imdb.com/title/tt1446147/

◎豆瓣评分 6.5/10 from 4,559 users

◎豆瓣链接 http://movie.douban.com/subject/3769442/

◎BT之家整理 http://www.btbtt.co

◎片  长 102分钟

◎导  演 约翰·斯托克韦尔 John Stockwell

◎主  演 帕兹·维嘉 Paz Vega

      珍妮·麦克蒂尔 Janet McTeer

      克里斯托弗·麦克唐纳 Christopher McDonald


◎简  介


  对于安东尼(斯科特·麦克洛维茨 Scott Mechlowicz 饰)来说,成为一名成功的厨师是他的毕生志愿,怀揣着这个梦想,安东尼来到了南斯拉夫,准备在这里开一家小餐厅。没想到,不但餐厅没开成,安东尼还和偶遇的好友朱利安(阿方索·麦克奥雷 Alphonso McAuley 饰)一起干起了私家侦探的活计。众所周知,朱利安是个好色的花花公子,和这样的伙伴一起创业真的没有问题吗?

  一个名叫卡塔琳娜(帕兹·维嘉 Paz Vega 饰)的美艳女子出现在了安东尼和朱利安的面前,声称因为掌握了一份绝密的情报而身处危险之中,这两个连自身都难保的大男人能够保护卡塔琳娜吗?两人此时还不知道的是,他们已经成为了冷酷杀手海伦(珍妮·麦克蒂尔 Janet McTeer 饰)的下一个目标。


Video
ID                                       : 1
Format                                   : AVC
Format/Info                              : Advanced Video Codec
Format profile                           : [email protected]
Format settings, CABAC                   : Yes
Format settings, ReFrames                : 5 frames
Codec ID                                 : V_MPEG4/ISO/AVC
Duration                                 : 1h 46mn
Bit rate                                 : 10.3 Mbps
Width                                    : 1 920 pixels
Height                                   : 816 pixels
Display aspect ratio                     : 2.35:1
Frame rate mode                          : Constant
Frame rate                               : 23.976 (24000/1001) fps
Color space                              : YUV
Chroma subsampling                       : 4:2:0
Bit depth                                : 8 bits
Scan type                                : Progressive
Bits/(Pixel*Frame)                       : 0.274
Stream size                              : 7.45 GiB (85%)
Writing library                          : x264 core 122 r2184 5c85e0a
Encoding settings                        : cabac=1 / ref=5 / deblock=1:-3:-3 / analyse=0x3:0x133 / me=umh / subme=10 / psy=1 / psy_rd=1.15:0.15 / mixed_ref=1 / me_range=32 / chroma_me=1 / trellis=2 / 8x8dct=1 / cqm=0 / deadzone=21,11 / fast_pskip=1 / chroma_qp_offset=-3 / threads=12 / sliced_threads=0 / nr=0 / decimate=1 / interlaced=0 / bluray_compat=0 / constrained_intra=0 / bframes=5 / b_pyramid=2 / b_adapt=2 / b_bias=0 / direct=3 / weightb=1 / open_gop=0 / weightp=2 / keyint=240 / keyint_min=23 / scenecut=60 / intra_refresh=0 / rc_lookahead=60 / rc=2pass / mbtree=1 / bitrate=10289 / ratetol=1.0 / qcomp=0.70 / qpmin=0 / qpmax=69 / qpstep=4 / cplxblur=20.0 / qblur=0.5 / vbv_maxrate=40000 / vbv_bufsize=40000 / nal_hrd=none / ip_ratio=1.20 / aq=1:1.00
Default                                  : Yes
Forced                                   : No

Audio
ID                                       : 2
Format                                   : DTS
Format/Info                              : Digital Theater Systems
Mode                                     : 16
Format settings, Endianness              : Big
Codec ID                                 : A_DTS
Duration                                 : 1h 46mn
Bit rate mode                            : Constant
Bit rate                                 : 1 509 Kbps
Channel(s)                               : 6 channels
Channel positions                        : Front: L C R, Side: L R, LFE
Sampling rate                            : 48.0 KHz
Frame rate                               : 93.750 fps (512 spf)
Bit depth                                : 24 bits
Compression mode                         : Lossy
Stream size                              : 1.12 GiB (13%)
Language                                 : English
Default                                  : Yes
Forced                                   : No

Menu
00:00:00.000                             : :00:00:00.000
00:04:44.242                             : :00:04:44.242
00:12:10.104                             : :00:12:10.104
00:17:41.560                             : :00:17:41.560
00:24:52.574                             : :00:24:52.574
00:31:05.489                             : :00:31:05.489
00:38:20.882                             : :00:38:20.882
00:43:51.254                             : :00:43:51.254
00:51:44.268                             : :00:51:44.268
00:59:14.342                             : :00:59:14.342
01:07:30.129                             : :01:07:30.129
01:16:21.285                             : :01:16:21.285
01:22:02.668                             : :01:22:02.668
01:28:08.033                             : :01:28:08.033
01:34:24.909                             : :01:34:24.909
01:40:42.912                             : :01:40:42.912






1 个附件 售价 大小 下载 时间

Cat.Run.2011.UNRATED.1080p.BluRay.x264.DTS-FGT[btbtt.me].torrent 0 金币 88.07K 3742 次 2018-6-7

#1楼
发帖时间:2018-06-07 10:24:37   |   回复数:5
yangbo83222179
一代宗师
谢谢楼主分享,支持一下
2018-6-7 #2楼
blue23
隐世仙人♂
感谢楼主分享
2018-6-7 #3楼
tanchoohoon
武林盟主
感谢楼主的无私分享!
2018-6-7 #4楼
911degrees
隐世仙人♂
非常感谢,谢谢分享
2018-6-7 #5楼
liyouchai
隐世仙人♂
谢谢楼主分享资源
2018-6-7 #6楼
游客组