aoloffline
超凡入圣№

[2011] [欧美] [剧情] [BD-1080P] [BT下载]追逐梦想 Go.For.It.2011.LIMITED.1080p.BluRay.x264-REFiNED 6.55GB

-->

‭‭☯‭‭本‭‭帖‭‭内‭‭容‭‭来‭‭源‭‭Β‭‭Τ‭‭之‭‭家‭‭:‭‭W‭‭W‭‭W‭‭.‭‭Β‭‭Τ‭‭Β‭‭Τ‭‭Τ‭‭.‭‭Μ‭‭Ε‭‭ ‭‭高‭‭清‭‭电‭‭影‭‭&‭‭版‭‭块‭‭,‭‭编‭‭辑‭‭组‭‭全‭‭体‭‭成‭‭员‭‭整‭‭理‭‭☯‭‭

Go.For.It.2011.LIMITED.1080p.BluRay.x264-REFiNED

◎译  名 追逐梦想

◎片  名 Go for It!

◎年  代 2011

◎产  地 美国

◎语  言 英语

◎上映日期 2010

◎BT之家整理 http://www.btbtt.co

◎导  演 Carmen Marron

◎主  演 埃美·加西亚 Aimee Garcia

      大卫·赫南德兹 David Hernandez


◎简  介


  影片讲述了一名墨西哥裔美国女孩卡门追逐舞蹈梦想的故事。


Video
ID                                       : 1
Format                                   : AVC
Format/Info                              : Advanced Video Codec
Format profile                           : [email protected]
Format settings                          : CABAC / 4 Ref Frames
Format settings, CABAC                   : Yes
Format settings, ReFrames                : 4 frames
Codec ID                                 : V_MPEG4/ISO/AVC
Duration                                 : 1 h 29 min
Bit rate                                 : 8 957 kb/s
Width                                    : 1 920 pixels
Height                                   : 1 080 pixels
Display aspect ratio                     : 16:9
Frame rate mode                          : Constant
Frame rate                               : 24.000 FPS
Color space                              : YUV
Chroma subsampling                       : 4:2:0
Bit depth                                : 8 bits
Scan type                                : Progressive
Bits/(Pixel*Frame)                       : 0.180
Stream size                              : 5.48 GiB (84%)
Writing library                          : x264 core 122 r2184 5c85e0a
Encoding settings                        : cabac=1 / ref=4 / deblock=1:0:0 / analyse=0x3:0x133 / me=umh / subme=7 / psy=1 / psy_rd=1.00:0.02 / mixed_ref=1 / me_range=16 / chroma_me=1 / trellis=1 / 8x8dct=1 / cqm=0 / deadzone=21,11 / fast_pskip=0 / chroma_qp_offset=-3 / threads=12 / sliced_threads=0 / nr=0 / decimate=1 / interlaced=0 / bluray_compat=0 / constrained_intra=0 / bframes=3 / b_pyramid=2 / b_adapt=1 / b_bias=0 / direct=1 / weightb=1 / open_gop=0 / weightp=2 / keyint=250 / keyint_min=25 / scenecut=40 / intra_refresh=0 / rc_lookahead=40 / rc=2pass / mbtree=1 / bitrate=8957 / ratetol=1.0 / qcomp=0.60 / qpmin=10 / qpmax=51 / qpstep=4 / cplxblur=20.0 / qblur=0.5 / ip_ratio=1.40 / aq=1:1.00
Language                                 : English
Default                                  : Yes
Forced                                   : No

Audio
ID                                       : 2
Format                                   : DTS
Format/Info                              : Digital Theater Systems
Codec ID                                 : A_DTS
Duration                                 : 1 h 29 min
Bit rate mode                            : Constant
Bit rate                                 : 1 509 kb/s
Channel(s)                               : 6 channels
Channel positions                        : Front: L C R, Side: L R, LFE
Sampling rate                            : 48.0 kHz
Frame rate                               : 93.750 FPS (512 SPF)
Bit depth                                : 24 bits
Compression mode                         : Lossy
Stream size                              : 968 MiB (14%)
Language                                 : English
Default                                  : Yes
Forced                                   : No



1 个附件 售价 大小 下载 时间

Go.For.It.2011.LIMITED.1080p.BluRay.x264-REFiNED[btbtt.me].torrent 0 金币 66.06K 539 次 2018-6-12

#1楼
发帖时间:2018-06-12 12:17:45   |   回复数:3
blue23
隐世仙人♂
感谢楼主分享
2018-6-12 #2楼
911degrees
隐世仙人♂

‭‭☯‭‭本‭‭帖‭‭内‭‭容‭‭来‭‭源‭‭Β‭‭Τ‭‭之‭‭家‭‭:‭‭W‭‭W‭‭W‭‭.‭‭Β‭‭Τ‭‭Β‭‭Τ‭‭Τ‭‭.‭‭Μ‭‭Ε‭‭ ‭‭高‭‭清‭‭电‭‭影‭‭&‭‭版‭‭块‭‭,‭‭编‭‭辑‭‭组‭‭全‭‭体‭‭成‭‭员‭‭整‭‭理‭‭☯‭‭


                                                                                                                                               

                             


 

 





                                                                                                                                                


简介数据


                 


▣译名 复仇者联盟3:无限战争/复仇者联盟3:无限之战(港)/复仇者联盟:无限之战(台)/复仇者联盟3:无尽之战/复联3/妇联3(豆友译名)/复仇者联盟3:灭霸传(豆友译名)/Avengers: Infinity War - Part I/The Avengers 3: Part 1
▣原名 复仇者联盟3:无限战争 Avengers: Infinity War
▣年代 2018
▣产地 美国
▣类型 动作/科幻/奇幻/冒险
▣语言 英语
▣片长 150分钟
▣主页 http://marvel.com/avengers
▣评级 MPAA:` PG-13
▣上映 2018-04-23(加州首映)/2018-04-27(美国)/2018-05-11(中国大陆)https://movie.douban.com/subject/24773958/
▣评分 8.8/10 from 370,658 users
▣链接 IMDb Movies Page Jump
▣豆瓣 8.4/10 from 313,537 users
▣链接 douban Movies Page Jump
▣注释 The storm is Coming Speed
▣情报 Vuedb Movies Page Jump
▣资料 Trakt Movies Page Jump
▣导演 安东尼·卢素 Anthony Russo
◈   乔·卢素 Joe Russo
▣编剧 杰克·科比 Jack Kirby
◈   克里斯托弗·马库斯 Christopher Markus
◈   斯蒂芬·麦克菲利 Stephen McFeely
◈   吉姆·斯特林 Jim Starlin
▣主演 小罗伯特·唐尼 Robert Downey Jr.
◈   克里斯·海姆斯沃斯 Chris Hemsworth
◈   克里斯·埃文斯 Chris Evans
◈   马克·鲁弗洛 Mark Ruffalo
◈   乔什·布洛林 Josh Brolin
◈   佐伊·索尔达娜 Zoe Saldana
◈   本尼迪克特·康伯巴奇 Benedict Cumberbatch
◈   克里斯·普拉特 Chris Pratt
◈   汤姆·霍兰德 Tom Holland
◈   伊丽莎白·奥尔森 Elizabeth Olsen
◈   保罗·贝坦尼 Paul Bettany
◈   斯嘉丽·约翰逊 Scarlett Johansson
◈   查德维克·博斯曼 Chadwick Boseman
◈   塞巴斯蒂安·斯坦 Sebastian Stan
◈   唐·钱德尔 Don Cheadle
◈   汤姆·希德勒斯顿 Tom Hiddleston
◈   安东尼·麦凯 Anthony Mackie
◈   本尼迪克特·王 Benedict Wong
◈   戴夫·巴蒂斯塔 Dave Bautista
◈   布莱德利·库珀 Bradley Cooper
◈   范·迪塞尔 Vin Diesel
◈   凯伦·吉兰 Karen Gillan
◈   利蒂希娅·赖特 Letitia Wright
◈   庞·克莱门捷夫 Pom Klementieff
◈   凯莉·库恩 Carrie Coon
◈   汤姆-沃恩-劳勒 Tom Vaughan-Lawlor
◈   海登·瓦尔希 Hynden Walch
◈   迈克尔·詹姆斯·肖 Michael James Shaw
◈   泰瑞·诺塔里 Terry Notary
◈   本尼西奥·德尔·托罗 Benicio Del Toro
◈   彼特·丁拉基 Peter Dinklage
◈   罗斯·马昆德 Ross Marquand
◈   丹娜·奎里拉 Danai Gurira
◈   温斯顿·杜克 Winston Duke
◈   弗洛伦丝·卡松巴 Florence Kasumba
◈   塞缪尔·杰克逊 Samuel L. Jackson
◈   雅各布·巴特朗 Jacob Batalon
◈   斯坦·李 Stan Lee
                                                                                                                                                

 


相关信息





_____________________________________________________________________◉剧情介绍◉_____________________________________________________________________

《复仇者联盟3:无限战争》是漫威电影宇宙10周年的历史性集结,将为影迷们带来史诗版的终极对决。面对灭霸突然发起的闪电袭击,复仇者联盟及其所有超级英雄盟友必须全力以赴,才能阻止他对全宇宙造成毁灭性的打击。

_____________________________________________________________________◉获奖情况◉_____________________________________________________________________

第4届豆瓣电影年度榜单  (2017)
最值得期待的外语电影

_____________________________________________________________________◉标签记录◉_____________________________________________________________________

漫威 | 超级英雄 | 科幻 | 美国 | 2018 | 动作 | 漫画改编 | 欧美

_____________________________________________________________________◉关键词语◉_____________________________________________________________________

Magic | Sacrifice | Superhero | Based On Comic | Space | Battlefield | Genocide | Magical Object | Super Power | Team | Aftercreditsstinger | Marvel Cinematic Universe | Cosmic

_____________________________________________________________________◉类似题材◉_____________________________________________________________________




_____________________________________________________________________◉其他推荐◉_____________________________________________________________________



                                                                                                                                                

                            








‭‭☯‭‭本‭‭帖‭‭内‭‭容‭‭来‭‭源‭‭Β‭‭Τ‭‭之‭‭家‭‭:‭‭W‭‭W‭‭W‭‭.‭‭Β‭‭Τ‭‭Β‭‭Τ‭‭Τ‭‭.‭‭Μ‭‭Ε‭‭ ‭‭高‭‭清‭‭电‭‭影‭‭&‭‭版‭‭块‭‭,‭‭编‭‭辑‭‭组‭‭全‭‭体‭‭成‭‭员‭‭整‭‭理‭‭☯‭‭

2018-6-12 #3楼
liyouchai
隐世仙人♂
谢谢楼主分享资源
2018-6-13 #4楼
游客组