aoloffline
超凡入圣№

[2018] [欧美] [奇幻] [WEB-1080P] [BT下载]咒语 The.Incantation.2018.1080p.AMZN.WEBRip.DDP5.1.x264-NTG 5.34GB

-->

The.Incantation.2018.1080p.AMZN.WEBRip.DDP5.1.x264-NTG

◎译  名 咒语s

◎片  名 The Incantation

◎年  代 2018

◎产  地 美国

◎类  别 奇幻/冒险/恐怖

◎语  言 英语

◎上映日期 2018-08-31(美国)

◎IMDb评分  6.0/10 from 47 users

◎IMDb链接  http://www.imdb.com/title/tt5361596/

◎BT之家整理 http://www.btbtt.co

◎导  演 裘德·沃尔克 Jude S. Walko

◎主  演 迪恩·凯恩 Dean Cain

      Sam Valentine

      Dylan Kellogg


◎简  介


  A young American girl has a chance of a lifetime to visit her ancestors castle in the south of France, only to find that her family is hiding deep, dark secrets about their nefarious past, far away from prying eyes.


Video
ID : 1
Format : AVC
Format/Info : Advanced Video Codec
Format profile : [email protected]
Format settings : CABAC / 4 Ref Frames
Format settings, CABAC : Yes
Format settings, ReFrames : 4 frames
Codec ID : V_MPEG4/ISO/AVC
Duration : 1 h 38 min
Bit rate mode : Variable
Bit rate : 7 129 kb/s
Maximum bit rate : 15.0 Mb/s
Width : 1 920 pixels
Height : 1 080 pixels
Display aspect ratio : 16:9
Frame rate mode : Constant
Frame rate : 23.976 (24000/1001) FPS
Color space : YUV
Chroma subsampling : 4:2:0
Bit depth : 8 bits
Scan type : Progressive
Bits/(Pixel*Frame) : 0.143
Stream size : 4.90 GiB (92%)
Default : Yes
Forced : No
Color range : Limited
Color primaries : BT.709
Transfer characteristics : BT.709
Matrix coefficients : BT.709

Audio
ID : 2
Format : E-AC-3
Format/Info : Enhanced Audio Coding 3
Codec ID : A_EAC3
Duration : 1 h 38 min
Bit rate mode : Constant
Bit rate : 640 kb/s
Channel(s) : 6 channels
Channel positions : Front: L C R, Side: L R, LFE
Sampling rate : 48.0 kHz
Frame rate : 187.500 FPS (256 SPF)
Compression mode : Lossy
Stream size : 450 MiB (8%)
Language : English
Service kind : Complete Main
Default : Yes
Forced : No

Text
ID : 3
Format : UTF-8
Codec ID : S_TEXT/UTF8
Codec ID/Info : UTF-8 Plain Text
Duration : 1 h 35 min
Bit rate : 50 b/s
Count of elements : 1335
Stream size : 35.3 KiB (0%)
Title : SDH
Language : English
Default : No
Forced : No




1 个附件 售价 大小 下载 时间

The.Incantation.2018.1080p.AMZN.WEBRip.DDP5.1.x264-NTG[btbtt.me].torrent 0 金币 53.91K 987 次 2018-7-31

#1楼
发帖时间:2018-07-31 17:05:42   |   回复数:4
hwb1108
小有名气
看下面的两张截图,讲的是钟馗捉鬼的故事
2018-7-31 #2楼
liyouchai
隐世仙人♂
谢谢楼主分享资源
2018-7-31 #3楼
911degrees
隐世仙人♂
非常感谢,谢谢分享
2018-8-1 #4楼
blue23
隐世仙人♂
感谢楼主分享
2018-8-4 #5楼
游客组