aoloffline
版主

[2011] [欧美] [惊悚] [BD-1080P] [BT下载]逃犯 Escapee.2011.1080p.BluRay.X264-7SinS 6.55GB

-->

Escapee.2011.1080p.BluRay.X264-7SinS

◎译  名 逃犯

◎片  名 Escapee

◎年  代 2011

◎产  地 美国

◎类  别 惊悚/恐怖

◎语  言 英语

◎上映日期 2011

◎IMDb评分  3.1/10 from 1,295 users

◎IMDb链接  http://www.imdb.com/title/tt1727258/

◎豆瓣评分 3.4/10 from 179 users

◎豆瓣链接 https://movie.douban.com/subject/6869516/

◎BT之家整理 http://www.btbtt.co

◎片  长 98分钟

◎导  演 Campion Murphy

◎主  演 Dominic Purcell

      Faith Ford

      Christine Evangelista


◎简  介


  某天,心理学学生艾比·琼斯(Christine Evangelista 饰)随同学还有教授一同前往帕克精神病院观摩。早在3年前,艾比罹患精神病的父亲便在这所医院自杀。可是为了帮更多患者走出阴影,这个勤奋勇敢的女孩还是踏入了这幢充满恐慌的建筑。在此期间,艾比意外遭到橙色高危精神病患者哈蒙(Dominic Purcell 饰)的袭击,备受惊吓。观摩结束之后,艾比返回寓所,与莱妮(Melissa Ordway 饰)和琳(Carly Chaikin 饰)两名好友进行考前复习。与此同时,哈蒙袭击看守人员后逃跑。警方在调查过程中发现,艾比与哈蒙被捕前杀害的女友十分相像。恶魔出笼,新的杀戮似乎即将展开……

  本片根据制作人位于路易斯安那州的家乡发生的真实事件改编。



Video
ID : 1
Format : AVC
Format/Info : Advanced Video Codec
Format profile : [email protected]
Format settings, CABAC : Yes
Format settings, ReFrames : 4 frames
Codec ID : V_MPEG4/ISO/AVC
Duration : 1h 37mn
Bit rate : 8 120 Kbps
Width : 1 920 pixels
Height : 1 080 pixels
Display aspect ratio : 16:9
Frame rate mode : Constant
Frame rate : 23.976 (24000/1001) fps
Original frame rate : 23.976 (23976/1000) fps
Color space : YUV
Chroma subsampling : 4:2:0
Bit depth : 8 bits
Scan type : Progressive
Bits/(Pixel*Frame) : 0.163
Stream size : 5.39 GiB (82%)
Writing library : x264 core 120 r2120 0c7dab9
Encoding settings : cabac=1 / ref=4 / deblock=1:0:0 / analyse=0x3:0x133 / me=umh / subme=7 / psy=1 / psy_rd=1.00:0.00 / mixed_ref=1 / me_range=16 / chroma_me=1 / trellis=1 / 8x8dct=1 / cqm=0 / deadzone=21,11 / fast_pskip=0 / chroma_qp_offset=-2 / threads=12 / sliced_threads=0 / nr=0 / decimate=1 / interlaced=0 / bluray_compat=0 / constrained_intra=0 / bframes=3 / b_pyramid=2 / b_adapt=2 / b_bias=0 / direct=3 / weightb=1 / open_gop=0 / weightp=2 / keyint=250 / keyint_min=23 / scenecut=40 / intra_refresh=0 / rc_lookahead=50 / rc=2pass / mbtree=1 / bitrate=8120 / ratetol=1.0 / qcomp=0.60 / qpmin=0 / qpmax=69 / qpstep=4 / cplxblur=20.0 / qblur=0.5 / ip_ratio=1.40 / aq=1:1.00
Language : English
Default : Yes
Forced : No

Audio
ID : 2
Format : DTS
Format/Info : Digital Theater Systems
Mode : 16
Format settings, Endianness : Big
Codec ID : A_DTS
Duration : 1h 37mn
Bit rate mode : Constant
Bit rate : 1 509 Kbps
Channel(s) : 6 channels
Channel positions : Front: L C R, Side: L R, LFE
Sampling rate : 48.0 KHz
Frame rate : 93.750 fps (512 spf)
Bit depth : 24 bits
Compression mode : Lossy
Stream size : 1.03 GiB (16%)
Language : English
Default : Yes
Forced : No





1 个附件 售价 大小 下载 时间

Escapee.2011.1080p.BluRay.X264-7SinS[btbtt.me].torrent 0 金币 66.08K 469 次 2018-8-8

#1楼
发帖时间:2018-08-08 11:12:33   |   回复数:3
blue23
隐世仙人♂
感谢楼主分享
2018-8-8 #2楼
911degrees
隐世仙人♂
非常感谢,谢谢分享
2018-8-8 #3楼
liyouchai
隐世仙人♂
谢谢楼主分享资源
2018-8-8 #4楼
游客组