aoloffline
版主

[2018] [欧美] [惊悚] [WEB-1080P] [BT下载]魔由心生 Tell.Me.Your.Name.2018.1080p.AMZN.WEBRip.DDP5.1.x264-NTG 3.52GB

-->

Tell.Me.Your.Name.2018.1080p.AMZN.WEBRip.DDP5.1.x264-NTG

◎译  名 魔由心生

◎片  名 Tell Me Your Name

◎年  代 2018

◎产  地 美国

◎类  别 剧情/惊悚/恐怖

◎语  言 英语

◎上映日期 2018-08-10(美国)

◎IMDb评分  8.0/10 from 36 users

◎IMDb链接  http://www.imdb.com/title/tt3619070/

◎BT之家整理 http://www.btbtt.co 

◎片  长 89分钟

◎导  演 Jason DeVan

◎主  演 西德妮·斯维尼 Sydney Sweeney

      麦迪逊·林茨 Madison Lintz

      布鲁斯·戴维森 Bruce Davison

      杰西卡·巴斯 Jessica Barth

      马特·达拉斯 Matt Dallas

      凯拉·迪弗 Kyla Deaver

      芭芭拉·古德森 Barbara Goodson

      帕特里克·R·沃克 Patrick R. Walker

      Donna Biscoe

      Mark Ashworth

      Lia McHugh

      Ahmed Lucan

      Tristan DeVan

      Austin Filson

      Betsy Hume


◎简  介


  问题少女艾希莉母亲去世,而姐姐更是远去求学,而她寄养于塔尼亚阿姨家(母亲的家乡),而她的生活并不平静,她被母亲可怕的幻影折磨的心神不宁。当然可怕的还在后面。


Video
ID : 1
Format : AVC
Format/Info : Advanced Video Codec
Format profile : High@L4
Format settings : CABAC / 4 Ref Frames
Format settings, CABAC : Yes
Format settings, ReFrames : 4 frames
Codec ID : V_MPEG4/ISO/AVC
Duration : 1 h 28 min
Bit rate : 5 070 kb/s
Width : 1 920 pixels
Height : 1 080 pixels
Display aspect ratio : 16:9
Frame rate mode : Constant
Frame rate : 23.976 (24000/1001) FPS
Color space : YUV
Chroma subsampling : 4:2:0
Bit depth : 8 bits
Scan type : Progressive
Bits/(Pixel*Frame) : 0.102
Stream size : 3.13 GiB (89%)
Default : Yes
Forced : No
Color range : Limited
Color primaries : BT.709
Transfer characteristics : BT.709
Matrix coefficients : BT.709

Audio
ID : 2
Format : E-AC-3
Format/Info : Enhanced Audio Coding 3
Codec ID : A_EAC3
Duration : 1 h 28 min
Bit rate mode : Constant
Bit rate : 640 kb/s
Channel(s) : 6 channels
Channel positions : Front: L C R, Side: L R, LFE
Sampling rate : 48.0 kHz
Frame rate : 187.500 FPS (256 SPF)
Compression mode : Lossy
Stream size : 404 MiB (11%)
Language : English
Service kind : Complete Main
Default : Yes
Forced : No

Text
ID : 3
Format : UTF-8
Codec ID : S_TEXT/UTF8
Codec ID/Info : UTF-8 Plain Text
Duration : 1 h 20 min
Bit rate : 50 b/s
Count of elements : 1117
Stream size : 29.9 KiB (0%)
Title : SDH
Language : English
Default : No
Forced : No



1 个附件 售价 大小 下载 时间

Tell.Me.Your.Name.2018.1080p.AMZN.WEBRip.DDP5.1.x264-NTG[btbtt.me].torrent 0 金币 70.98K 756 次 2月前

#1楼
发帖时间:2018-08-10 17:57:06   |   回复数:4
gzgydxljx
武林高手
感谢楼主分享,谢谢!
2月前 #2楼
liyouchai
超凡入圣№
谢谢楼主分享资源
2月前 #3楼
911degrees
隐世仙人♂
非常感谢,谢谢分享
2月前 #4楼
blue23
隐世仙人♂
感谢楼主分享
2月前 #5楼
游客组