aoloffline
版主

[2010] [欧美] [恐怖] [BD-1080P] [BT下载]徘徊 Prowl.2010.1080p.BluRay.x264-7SinS 5.45GB

-->

Prowl.2010.1080p.BluRay.x264-7SinS

◎译  名 徘徊

◎片  名 Prowl

◎年  代 2010

◎产  地 美国

◎类  别 恐怖

◎语  言 英语

◎上映日期 2010

◎IMDb评分  4.6/10 from 4,501 users

◎IMDb链接  http://www.imdb.com/title/tt1559033/

◎豆瓣评分 4.0/10 from 239 users

◎豆瓣链接 https://movie.douban.com/subject/4818148/

◎BT之家整理 http://www.btbtt.co 

◎导  演 Patrik Syversen

◎主  演 Ruta Gedmintas

      Joshua Bowman

      Perdita Weeks


◎简  介


  Amber梦想 逃离她的小城镇存在和说服她的朋友陪她找到一 间公寓 在大城市。 电影下载当他们的交通中断了,她和她的朋友们感激地接受一个半骑在A的后面。 但是,当司机拒绝停车,他们发现货物是数百 箱 血,他们的恐慌。 他们的恐慌变成恐怖当 卡车 disgorges黑暗它们分为A,废弃的仓库在嗜血动物学会打猎人的猎物,其中,朋友们意识到,这正是他们现在是...


Video
ID : 1
Format : AVC
Format/Info : Advanced Video Codec
Format profile : High@L4.1
Format settings : CABAC / 5 Ref Frames
Format settings, CABAC : Yes
Format settings, ReFrames : 5 frames
Codec ID : V_MPEG4/ISO/AVC
Duration : 1 h 21 min
Bit rate : 8 125 kb/s
Width : 1 920 pixels
Height : 800 pixels
Display aspect ratio : 2.40:1
Frame rate mode : Constant
Frame rate : 25.000 FPS
Color space : YUV
Chroma subsampling : 4:2:0
Bit depth : 8 bits
Scan type : Progressive
Bits/(Pixel*Frame) : 0.212
Stream size : 4.49 GiB (82%)
Writing library : x264 core 114 r1924 08d04a4
Encoding settings : cabac=1 / ref=5 / deblock=1:0:0 / analyse=0x3:0x133 / me=umh / subme=7 / psy=1 / psy_rd=1.00:0.00 / mixed_ref=1 / me_range=16 / chroma_me=1 / trellis=1 / 8x8dct=1 / cqm=0 / deadzone=21,11 / fast_pskip=0 / chroma_qp_offset=-2 / threads=12 / sliced_threads=0 / nr=0 / decimate=1 / interlaced=0 / constrained_intra=0 / bframes=3 / b_pyramid=2 / b_adapt=1 / b_bias=0 / direct=1 / weightb=1 / open_gop=0 / weightp=2 / keyint=250 / keyint_min=25 / scenecut=40 / intra_refresh=0 / rc_lookahead=40 / rc=2pass / mbtree=1 / bitrate=8125 / ratetol=1.0 / qcomp=0.60 / qpmin=0 / qpmax=69 / qpstep=4 / cplxblur=20.0 / qblur=0.5 / ip_ratio=1.40 / aq=1:1.00
Language : English
Default : Yes
Forced : No

Audio
ID : 2
Format : DTS
Format/Info : Digital Theater Systems
Codec ID : A_DTS
Duration : 1 h 21 min
Bit rate mode : Constant
Bit rate : 1 509 kb/s
Channel(s) : 6 channels
Channel positions : Front: L C R, Side: L R, LFE
Sampling rate : 48.0 kHz
Frame rate : 93.750 FPS (512 SPF)
Bit depth : 24 bits
Compression mode : Lossy
Stream size : 875 MiB (16%)
Language : English
Default : Yes
Forced : No




1 个附件 售价 大小 下载 时间

Prowl.2010.1080p.BluRay.x264-7SinS[btbtt.me].torrent 0 金币 55.00K 385 次 4月前

#1楼
发帖时间:2018-08-10 20:10:40   |   回复数:3
liyouchai
超凡入圣№
谢谢楼主分享资源
4月前 #2楼
911degrees
隐世仙人♂
非常感谢,谢谢分享
4月前 #3楼
blue23
隐世仙人♂
感谢楼主分享
4月前 #4楼
游客组