aoloffline
版主

[2017] [欧美] [剧情] [WEB-1080P] [BT下载]扎马 Zama.2017.SPANISH.1080p.AMZN.WEBRip.DDP5.1.x264-NTG 6.44GB

-->

Zama.2017.SPANISH.1080p.AMZN.WEBRip.DDP5.1.x264-NTG

◎译  名 扎马/流亡将军沙马(港)

◎片  名 Zama

◎年  代 2017

◎产  地 阿根廷/西班牙/法国/荷兰/美国/巴西/墨西哥/葡萄牙/黎巴嫩/瑞士

◎类  别 剧情

◎语  言 西班牙语

◎上映日期 2017-08-31(威尼斯电影节)/2017-09-28(阿根廷)

◎IMDb评分  6.8/10 from 1,754 users

◎IMDb链接  http://www.imdb.com/title/tt3409848/

◎豆瓣评分 7.0/10 from 552 users

◎豆瓣链接 https://movie.douban.com/subject/24719134/

◎BT之家整理 http://www.btbtt.co 

◎片  长 115分钟

◎导  演 卢奎西亚·马特尔 Lucrecia Martel

◎主  演 丹尼尔·希梅内斯·卡乔 Daniel Giménez Cacho

      洛拉·杜埃尼亚斯 Lola Dueñas

      马修斯·纳克加勒 Matheus Nachtergaele

      胡安·米努欣 Juan Minujín

      马丽雅娜·努涅斯 Mariana Nunes

      豪尔赫·罗曼 Jorge Román


◎简  介


  扎马,一个出生于南美的西班牙军官,等待一封国王授予他更好的位置的调令。他的处境很微妙。为此,他被迫顺从地接受每项任务。当然,国王的命令从未到来。当发现等待是徒劳的时候,他决定参加一个危险的任务,以期让国王听到他的事。然而,当生命处于危险之中,他发现他唯一的愿望是活着。


Video
ID : 1
Format : AVC
Format/Info : Advanced Video Codec
Format profile : High@L4
Format settings : CABAC / 4 Ref Frames
Format settings, CABAC : Yes
Format settings, ReFrames : 4 frames
Codec ID : V_MPEG4/ISO/AVC
Duration : 1 h 55 min
Bit rate : 7 377 kb/s
Width : 1 920 pixels
Height : 1 080 pixels
Display aspect ratio : 16:9
Frame rate mode : Constant
Frame rate : 24.000 FPS
Color space : YUV
Chroma subsampling : 4:2:0
Bit depth : 8 bits
Scan type : Progressive
Bits/(Pixel*Frame) : 0.148
Stream size : 5.93 GiB (92%)
Default : Yes
Forced : No
Color range : Limited
Color primaries : BT.709
Transfer characteristics : BT.709
Matrix coefficients : BT.709

Audio
ID : 2
Format : E-AC-3
Format/Info : Enhanced Audio Coding 3
Codec ID : A_EAC3
Duration : 1 h 55 min
Bit rate mode : Constant
Bit rate : 640 kb/s
Channel(s) : 6 channels
Channel positions : Front: L C R, Side: L R, LFE
Sampling rate : 48.0 kHz
Frame rate : 187.500 FPS (256 SPF)
Compression mode : Lossy
Stream size : 527 MiB (8%)
Language : Spanish
Service kind : Complete Main
Default : Yes
Forced : No

Text
ID : 3
Format : UTF-8
Codec ID : S_TEXT/UTF8
Codec ID/Info : UTF-8 Plain Text
Duration : 1 h 48 min
Bit rate : 0 b/s
Count of elements : 10
Stream size : 125 Bytes (0%)
Title : SDH
Language : English
Default : No
Forced : No




1 个附件 售价 大小 下载 时间

Zama.2017.SPANISH.1080p.AMZN.WEBRip.DDP5.1.x264-NTG[btbtt.me].torrent 0 金币 64.96K 518 次 2月前

#1楼
发帖时间:2018-08-10 20:22:59   |   回复数:3
liyouchai
超凡入圣№
谢谢楼主分享资源
2月前 #2楼
911degrees
隐世仙人♂
非常感谢,谢谢分享
2月前 #3楼
blue23
隐世仙人♂
感谢楼主分享
2月前 #4楼
游客组