aoloffline
版主

[2018] [欧美] [动作] [HDTV/HDrip] [BT下载]摩天营救[韩版]Skyscaper.2018.720p.HDRip.x264.AAC2.0-STU 2.58GB

-->

Skyscaper.2018.720p.KORSUB.HDRip.x264.AAC2.0-STUTTERSHIT

◎译  名 摩天营救/摩天大楼(台)/高凶浩劫(港)/高耸入云

◎片  名 Skyscraper

◎年  代 2018

◎产  地 美国

◎类  别 动作/惊悚/冒险

◎语  言 英语

◎上映日期 2018-07-13(美国)/2018-07-20(中国大陆)

◎IMDb评分  6.1/10 from 18,714 users

◎IMDb链接  http://www.imdb.com/title/tt5758778/

◎豆瓣评分 6.5/10 from 46,207 users

◎豆瓣链接 https://movie.douban.com/subject/26804147/

◎BT之家整理 http://www.btbtt.co 

◎片  长 102分钟

◎导  演 罗森·马歇尔·瑟伯 Rawson Marshall Thurber

◎主  演 道恩·强森 Dwayne Johnson

      内芙·坎贝尔 Neve Campbell

      黄经汉 Chin Han

      罗兰·默勒 Roland Møller

      麦肯纳·罗伯茨 McKenna Roberts

      诺亚·科特雷尔 Noah Cottrell

      诺亚·泰勒 Noah Taylor

      巴勃罗·施瑞博尔 Pablo Schreiber

      凯文·兰金 Kevin Rankin

      昆凌 Hannah Quinlivan

      文峰 Byron Mann

      马特·欧莱瑞 Matt O'Leary

      比特里斯·金 Beatrice King

      马志 Tzi Ma

      保罗·麦克吉莱恩 Paul McGillion

      吴嘉星 Kathy Wu

      艾德里安·霍姆斯 Adrian Holmes

      维努斯·特雷佐 Venus Terzo

      杰特·克莱恩 Jett Klyne

      拜伦·劳森 Byron Lawson

      关永扬 Darryl Quon

      法比欧·塔索恩 Fabio Tassone

      卡洛·余 Carlo Yu


◎简  介


  在香港市中心,世界上最高、结构最复杂的摩天大楼遭到破坏,危机一触即发。威尔·索耶(道恩·强森 饰)的妻子萨拉(内芙·坎贝尔 饰)和孩子们在98层被劫为人质,直接暴露在火线上。威尔,这位战争英雄、前联邦调查局救援队员,作为大楼的安保顾问,却被诬陷纵火和谋杀。他必须奋力营救家人,为自己洗脱罪名,关乎生死存亡的高空任务就此展开。



Video
ID : 1
Format : AVC
Format/Info : Advanced Video Codec
Format profile : High@L4.1
Format settings : CABAC / 4 Ref Frames
Format settings, CABAC : Yes
Format settings, ReFrames : 4 frames
Codec ID : V_MPEG4/ISO/AVC
Duration : 1 h 42 min
Bit rate : 3 352 kb/s
Width : 1 280 pixels
Height : 536 pixels
Display aspect ratio : 2.40:1
Frame rate mode : Constant
Frame rate : 30.000 FPS
Color space : YUV
Chroma subsampling : 4:2:0
Bit depth : 8 bits
Scan type : Progressive
Bits/(Pixel*Frame) : 0.163
Stream size : 2.39 GiB (93%)
Title : Skyscaper.2018.720p.KORSUB.HDRip.x264.AAC2.0-STUTTERSHIT
Writing library : x264 core 142 r2479 dd79a61
Encoding settings : cabac=1 / ref=1 / deblock=1:0:0 / analyse=0x3:0x113 / me=hex / subme=2 / psy=1 / psy_rd=1.00:0.00 / mixed_ref=0 / me_range=16 / chroma_me=1 / trellis=0 / 8x8dct=1 / cqm=0 / deadzone=21,11 / fast_pskip=1 / chroma_qp_offset=0 / threads=18 / lookahead_threads=4 / sliced_threads=0 / nr=0 / decimate=1 / interlaced=0 / bluray_compat=0 / constrained_intra=0 / bframes=3 / b_pyramid=2 / b_adapt=1 / b_bias=0 / direct=1 / weightb=1 / open_gop=0 / weightp=1 / keyint=300 / keyint_min=30 / scenecut=40 / intra_refresh=0 / rc_lookahead=10 / rc=abr / mbtree=1 / bitrate=3352 / ratetol=1.0 / qcomp=0.60 / qpmin=0 / qpmax=69 / qpstep=4 / vbv_maxrate=62500 / vbv_bufsize=78125 / nal_hrd=none / filler=0 / ip_ratio=1.40 / aq=1:1.00
Language : English
Default : Yes
Forced : No
Color range : Limited
Color primaries : BT.709
Transfer characteristics : BT.709
Matrix coefficients : BT.709

Audio
ID : 2
Format : AAC
Format/Info : Advanced Audio Codec
Format profile : LC
Codec ID : A_AAC-2
Duration : 1 h 42 min
Bit rate : 256 kb/s
Channel(s) : 2 channels
Channel positions : Front: L R
Sampling rate : 48.0 kHz
Frame rate : 46.875 FPS (1024 SPF)
Compression mode : Lossy
Stream size : 188 MiB (7%)
Title : Skyscaper.2018.720p.KORSUB.HDRip.x264.AAC2.0-STUTTERSHIT
Language : English
Default : Yes
Forced : No



1 个附件 售价 大小 下载 时间

Skyscaper.2018.720p.KORSUB.HDRip.x264.AAC2.0-STUTTERSHIT[btbtt.me].torrent 0 金币 52.09K 2177 次 2月前

#1楼
发帖时间:2018-08-11 00:59:44   |   回复数:4
GNing
武林高手
thank you
2月前 #2楼
911degrees
隐世仙人♂
非常感谢,谢谢分享
2月前 #3楼
blue23
隐世仙人♂
感谢楼主分享
2月前 #4楼
liyouchai
超凡入圣№
谢谢楼主分享资源
2月前 #5楼
游客组