aoloffline
超凡入圣№

[2011] [其他] [剧情] [WEB-1080P] [BT下载]生育的世纪 Siglo.Ng.Pagluluwal.2011.1080p.AMZN.WEBRip.DDP2.0.x264-Cinefeel 11.5

-->

Siglo.Ng.Pagluluwal.AKA.Century.of.Birthing.2011.1080p.AMZN.WEBRip.DDP2.0.x264-Cinefeel

◎译  名 生育的世纪

◎片  名 Siglo ng pagluluwal

◎年  代 2011

◎产  地 菲律宾

◎类  别 剧情

◎语  言 菲律宾语/塔加路语

◎IMDb评分  7.3/10 from 166 users

◎IMDb链接  http://www.imdb.com/title/tt2028550/

◎BT之家整理 http://www.btbtt.us/

◎片  长 360分钟

◎导  演 拉夫·达兹 Lav Diaz


◎简  介


  An artist struggles to finish his work. A storyline about a cult plays in his head. Fundamentalism will destroy the world. The artist destroys his muse in theprocess. He redeems her in the end.


Video
ID : 1
Format : AVC
Format/Info : Advanced Video Codec
Format profile : [email protected]
Format settings : CABAC / 4 Ref Frames
Format settings, CABAC : Yes
Format settings, ReFrames : 4 frames
Codec ID : V_MPEG4/ISO/AVC
Duration : 5 h 59 min
Bit rate mode : Variable
Bit rate : 4 356 kb/s
Maximum bit rate : 15.0 Mb/s
Width : 1 920 pixels
Height : 1 080 pixels
Display aspect ratio : 16:9
Frame rate mode : Constant
Frame rate : 23.976 (24000/1001) FPS
Color space : YUV
Chroma subsampling : 4:2:0
Bit depth : 8 bits
Scan type : Progressive
Bits/(Pixel*Frame) : 0.088
Stream size : 10.9 GiB (95%)
Default : Yes
Forced : No
Color range : Limited
Color primaries : BT.709
Transfer characteristics : BT.709
Matrix coefficients : BT.709

Audio
ID : 2
Format : E-AC-3
Format/Info : Enhanced Audio Coding 3
Codec ID : A_EAC3
Duration : 5 h 59 min
Bit rate mode : Constant
Bit rate : 224 kb/s
Channel(s) : 2 channels
Channel positions : Front: L R
Sampling rate : 48.0 kHz
Frame rate : 187.500 FPS (256 SPF)
Compression mode : Lossy
Stream size : 575 MiB (5%)
Language : English
Service kind : Complete Main
Default : Yes
Forced : No




1 个附件 售价 大小 下载 时间

Siglo.Ng.Pagluluwal.AKA.Century.of.Birthing.2011.1080p.AMZN.WEBRip.DDP2.0.x264-Cinefeel[btbtt.me].torrent 0 金币 58.07K 497 次 2018-8-17

#1楼
发帖时间:2018-08-17 11:52:43   |   回复数:3
911degrees
隐世仙人♂
非常感谢,谢谢分享
2018-8-17 #2楼
liyouchai
隐世仙人♂
谢谢楼主分享资源
2018-8-17 #3楼
blue23
隐世仙人♂
感谢楼主分享
2018-8-18 #4楼
游客组