aoloffline
版主

[2010] [韩国] [动作] [BD-1080P] [BT下载]出云之月 Blades.Of.Blood.2010.1080p.BluRay.x264-aAF 8.74GB

-->

Blades.Of.Blood.2010.1080p.BluRay.x264-aAF

◎译  名 出云之月/李氏朝鮮秘剣録/像摆脱云彩的月亮一样

◎片  名 구르믈 버서난 달처럼

◎年  代 2010

◎产  地 韩国

◎类  别 动作/古装

◎语  言 韩语

◎上映日期 2010-04-29(韩国)

◎豆瓣评分 5.3/10 from 530 users

◎豆瓣链接 https://movie.douban.com/subject/4238946/

◎BT之家整理 http://www.btbtt.us/

◎片  长 111分钟

◎导  演 李濬益 Jun-ik Lee

◎主  演 黄政民 Jeong-min Hwang

      车胜元 Seung-won Cha

      韩智慧 Ji-hye Han

      白成铉 Seong-hyeon Baek

      金昌完 Chang-wan Kim

      宋永彰 Young-chang Song

      郑圭洙 Gyu-su Jeong

      申正根 Jeong-geun Sin

      柳承龙 Seung-yong Ryoo

      梁英祖 Yang Yeong-jo

      金宝妍 Bo-yeon Kim

      金相浩 Sang-ho Kim


◎简  介


  十六世纪末,东场西场在朝廷上争权的斗争日趋白热,组建“大同契”抵御外敌的于历卷入其中,因谋逆罪被处以极刑,大同契一案的幕后主使韩申均有庶子韩坚子(白成铉 饰),韩坚子在韩家毫无地位可言,他一次次用暴力谋求尊严,但终不得志。大同契内部的野心家李梦鹤(车胜元 饰)认为抵御外敌先要荡平腐败的朝廷,成功执掌大同契后,李梦鹤将韩申均满门斩杀复仇,于历生前好友——目盲的高手黄处士(黄政民 饰)出面阻止梦鹤,并将重伤的韩坚子救走。梦鹤率领大同契打出反朝廷大旗,在各地掀起暴力反抗。另一方面,拜黄处士为师的韩坚子苦心修炼,踏上了寻找李梦鹤复仇的旅途。在纷纷乱世中,每个人都将面对自己命运的劫数……


Video
ID : 1
Format : AVC
Format/Info : Advanced Video Codec
Format profile : [email protected]
Format settings : CABAC / 5 Ref Frames
Format settings, CABAC : Yes
Format settings, ReFrames : 5 frames
Muxing mode : Header stripping
Codec ID : V_MPEG4/ISO/AVC
Duration : 1 h 48 min
Bit rate : 10.0 Mb/s
Width : 1 920 pixels
Height : 816 pixels
Display aspect ratio : 2.35:1
Frame rate mode : Constant
Frame rate : 23.976 (24000/1001) FPS
Color space : YUV
Chroma subsampling : 4:2:0
Bit depth : 8 bits
Scan type : Progressive
Bits/(Pixel*Frame) : 0.267
Stream size : 7.42 GiB (85%)
Writing library : x264 core 116 r2019 9cc407d
Encoding settings : cabac=1 / ref=5 / deblock=1:0:0 / analyse=0x3:0x133 / me=umh / subme=8 / psy=1 / psy_rd=1.00:0.00 / mixed_ref=1 / me_range=16 / chroma_me=1 / trellis=1 / 8x8dct=1 / cqm=0 / deadzone=21,11 / fast_pskip=0 / chroma_qp_offset=-2 / threads=12 / sliced_threads=0 / nr=0 / decimate=1 / interlaced=0 / bluray_compat=0 / constrained_intra=0 / bframes=3 / b_pyramid=2 / b_adapt=1 / b_bias=0 / direct=1 / weightb=1 / open_gop=0 / weightp=2 / keyint=240 / keyint_min=25 / scenecut=40 / intra_refresh=0 / rc_lookahead=40 / rc=2pass / mbtree=1 / bitrate=10043 / ratetol=1.0 / qcomp=0.60 / qpmin=0 / qpmax=69 / qpstep=4 / cplxblur=20.0 / qblur=0.5 / ip_ratio=1.40 / aq=1:1.00
Language : English
Default : Yes
Forced : No

Audio
ID : 2
Format : DTS
Format/Info : Digital Theater Systems
Muxing mode : Header stripping
Codec ID : A_DTS
Duration : 1 h 48 min
Bit rate mode : Constant
Bit rate : 1 509 kb/s
Channel(s) : 6 channels
Channel positions : Front: L C R, Side: L R, LFE
Sampling rate : 48.0 kHz
Frame rate : 93.750 FPS (512 SPF)
Bit depth : 24 bits
Compression mode : Lossy
Stream size : 1.14 GiB (13%)
Default : Yes
Forced : No



1 个附件 售价 大小 下载 时间

Blades.Of.Blood.2010.1080p.BluRay.x264-aAF[btbtt.me].torrent 0 金币 87.89K 1484 次 2018-8-29

#1楼
发帖时间:2018-08-29 17:55:10   |   回复数:4
blue23
隐世仙人♂
感谢楼主分享
2018-8-29 #2楼
911degrees
隐世仙人♂
非常感谢,谢谢分享
2018-8-30 #3楼
yangbo83222179
一代宗师
谢谢楼主分享,支持一下
2018-8-30 #4楼
liyouchai
隐世仙人♂
谢谢楼主分享资源
2018-8-30 #5楼
游客组