aoloffline
版主

[2011] [欧美] [惊悚] [BD-1080P] [BT下载]紫檀巷 Rosewood.Lane.2011.1080p.BluRay.x264-BRMP 6.56GB

-->

Rosewood.Lane.2011.1080p.BluRay.x264-BRMP

◎译  名 紫檀巷

◎片  名 Rosewood Lane

◎年  代 2012

◎产  地 美国

◎类  别 惊悚/恐怖

◎语  言 英语

◎BT之家整理 http://www.btbtt.us/

◎导  演 维克多·萨尔瓦 Victor Salva

◎主  演 罗丝·麦高恩 Rose McGowan

      劳伦·维勒斯 Lauren Vélez

      雷·怀斯 Ray Wise


◎简  介


  一年前,美丽的知名写手和电台心理医生索妮·布雷克(萝丝·麦克格温 Rose McGowan 饰)遭遇了人生中的一大悲剧,她孤独居住在大城市郊外的父亲酒后跌落地下室,尸体很久后才被发现。经历了一年的情感与事业沉浮,索妮搬到了父亲位于紫檀巷的空房子。这里远离大都会的喧嚣,让他疲累的心灵得到纾缓。可是好景不长,某天索妮在做完晚间节目后回到家中,却发现有人闯入的痕迹。骚扰她的似乎是当地一个报童,那名俊朗切担着一股阴冷气息的少年之后又闯进了索妮的地下室。

  种种迹象表明,索妮父亲的死亡与着千丝万缕的联系。她的生活被引入了一场噩梦之中……



Video
ID : 1
Format : AVC
Format/Info : Advanced Video Codec
Format profile : [email protected]
Format settings : CABAC / 5 Ref Frames
Format settings, CABAC : Yes
Format settings, ReFrames : 5 frames
Codec ID : V_MPEG4/ISO/AVC
Duration : 1 h 36 min
Bit rate : 8 250 kb/s
Width : 1 920 pixels
Height : 816 pixels
Display aspect ratio : 2.35:1
Frame rate mode : Constant
Frame rate : 23.976 (24000/1001) FPS
Color space : YUV
Chroma subsampling : 4:2:0
Bit depth : 8 bits
Scan type : Progressive
Bits/(Pixel*Frame) : 0.220
Stream size : 5.42 GiB (83%)
Writing library : x264 core 128 r2216 198a7ea
Encoding settings : cabac=1 / ref=5 / deblock=1:0:0 / analyse=0x3:0x133 / me=umh / subme=7 / psy=1 / psy_rd=1.00:0.00 / mixed_ref=1 / me_range=16 / chroma_me=1 / trellis=1 / 8x8dct=1 / cqm=0 / deadzone=21,11 / fast_pskip=0 / chroma_qp_offset=-2 / threads=12 / lookahead_threads=2 / sliced_threads=0 / nr=0 / decimate=1 / interlaced=0 / bluray_compat=0 / constrained_intra=0 / bframes=3 / b_pyramid=2 / b_adapt=1 / b_bias=0 / direct=1 / weightb=1 / open_gop=0 / weightp=2 / keyint=240 / keyint_min=23 / scenecut=40 / intra_refresh=0 / rc_lookahead=40 / rc=2pass / mbtree=1 / bitrate=8250 / ratetol=1.0 / qcomp=0.60 / qpmin=0 / qpmax=69 / qpstep=4 / cplxblur=20.0 / qblur=0.5 / ip_ratio=1.40 / aq=1:1.00
Language : English
Default : Yes
Forced : No

Audio
ID : 2
Format : DTS
Format/Info : Digital Theater Systems
Codec ID : A_DTS
Duration : 1 h 36 min
Bit rate mode : Constant
Bit rate : 1 509 kb/s
Channel(s) : 6 channels
Channel positions : Front: L C R, Side: L R, LFE
Sampling rate : 48.0 kHz
Frame rate : 93.750 FPS (512 SPF)
Bit depth : 24 bits
Compression mode : Lossy
Stream size : 1.01 GiB (15%)
Language : English
Default : Yes
Forced : No

Text
ID : 3
Format : UTF-8
Codec ID : S_TEXT/UTF8
Codec ID/Info : UTF-8 Plain Text
Language : English
Default : Yes
Forced : No




1 个附件 售价 大小 下载 时间

Rosewood.Lane.2011.1080p.BluRay.x264-BRMP[btbtt.me].torrent 0 金币 66.14K 623 次 11月前

#1楼
发帖时间:2018-09-11 23:16:07   |   回复数:3
blue23
隐世仙人♂
感谢楼主分享
11月前 #2楼
911degrees
隐世仙人♂
非常感谢,谢谢分享
11月前 #3楼
liyouchai
隐世仙人♂
谢谢楼主分享资源
11月前 #4楼
游客组