aoloffline
版主

[2018] [欧美] [恐怖] [WEB-720P] [BT下载]他在那 Hes.Out.There.2018.720p.AMZN.WEBRip.DDP5.1.x264-NTG 1.33GB

-->

Hes.Out.There.2018.720p.AMZN.WEBRip.DDP5.1.x264-NTG

◎译  名 他在那

◎片  名 He's Out There

◎年  代 2018

◎产  地 美国

◎类  别 恐怖

◎语  言 英语

◎上映日期 2018-08-26(伦敦恐怖电影节)

◎BT之家整理 http://www.btbtt.us/

◎导  演 Quinn Lasher

◎主  演 伊冯娜·斯特拉霍夫斯基 Yvonne Strahovski

      贾斯汀·布恩宁 Justin Bruening

      Abigail Pniowsky

      Stephanie Costa

      朱利安·拜利 Julian Bailey

      Anna Pniowsky


◎简  介


  On vacation at a remote lake house, a mother and her two young daughters must fight for survival after falling into a terrifying and bizarre nightmare conceived by a psychopath.


Video
ID : 1
Format : AVC
Format/Info : Advanced Video Codec
Format profile : High@L3.1
Format settings : CABAC / 5 Ref Frames
Format settings, CABAC : Yes
Format settings, ReFrames : 5 frames
Codec ID : V_MPEG4/ISO/AVC
Duration : 1 h 29 min
Bit rate : 1 496 kb/s
Width : 1 280 pixels
Height : 528 pixels
Display aspect ratio : 2.40:1
Original display aspect ratio : 2.40:1
Frame rate mode : Constant
Frame rate : 23.976 (24000/1001) FPS
Color space : YUV
Chroma subsampling : 4:2:0
Bit depth : 8 bits
Scan type : Progressive
Bits/(Pixel*Frame) : 0.092
Stream size : 954 MiB (70%)
Default : Yes
Forced : No
Color range : Limited
Color primaries : BT.709
Transfer characteristics : BT.709
Matrix coefficients : BT.709

Audio
ID : 2
Format : E-AC-3
Format/Info : Enhanced Audio Coding 3
Codec ID : A_EAC3
Duration : 1 h 29 min
Bit rate mode : Constant
Bit rate : 640 kb/s
Channel(s) : 6 channels
Channel positions : Front: L C R, Side: L R, LFE
Sampling rate : 48.0 kHz
Frame rate : 187.500 FPS (256 SPF)
Compression mode : Lossy
Stream size : 408 MiB (30%)
Language : English
Service kind : Complete Main
Default : Yes
Forced : No

Text
ID : 3
Format : UTF-8
Codec ID : S_TEXT/UTF8
Codec ID/Info : UTF-8 Plain Text
Duration : 1 h 26 min
Bit rate : 32 b/s
Count of elements : 725
Stream size : 20.5 KiB (0%)
Title : SDH
Language : English
Default : No
Forced : No




1 个附件 售价 大小 下载 时间

Hes.Out.There.2018.720p.AMZN.WEBRip.DDP5.1.x264-NTG[btbtt.me].torrent 0 金币 27.16K 644 次 11天前

#1楼
发帖时间:2018-09-14 18:18:05   |   回复数:4
二月妙
一派掌门

这个算是小众片吧

11天前 #2楼
911degrees
隐世仙人♂
非常感谢,谢谢分享
11天前 #3楼
liyouchai
超凡入圣№
谢谢楼主分享资源
11天前 #4楼
blue23
隐世仙人♂
感谢楼主分享
10天前 #5楼
游客组