aoloffline
版主

[2013] [欧美] [惊悚] [WEB-1080P] [BT下载]早产儿 Slink.2013.1080p.AMZN.WEBRip.DDP2.0.x264-ABM 7.66GB

-->

Slink.2013.1080p.AMZN.WEBRip.DDP2.0.x264-ABM

◎译  名 早产儿

◎片  名 Slink

◎年  代 2013

◎产  地 美国

◎类  别 惊悚/恐怖

◎语  言 英语

◎BT之家整理 http://www.btbtt.us/

◎片  长 80分钟

◎导  演 Jared Masters

◎主  演 Danika Galindo

      Julia Faye West

      Art Roberts

      Dawna Lee Heising


◎简  介


  In the rural town of Wickenhaven, a psychotic tanning salon owner is responsible for the disappearances of many young, innocent girls, while his wife, an exotic purse designer, is willing to overlook his evil nature.


Video
ID : 1
Format : AVC
Format/Info : Advanced Video Codec
Format profile : High@L4
Format settings : CABAC / 4 Ref Frames
Format settings, CABAC : Yes
Format settings, ReFrames : 4 frames
Codec ID : V_MPEG4/ISO/AVC
Duration : 1 h 20 min
Bit rate mode : Variable
Bit rate : 13.2 Mb/s
Maximum bit rate : 15.0 Mb/s
Width : 1 920 pixels
Height : 1 080 pixels
Display aspect ratio : 16:9
Frame rate mode : Constant
Frame rate : 23.976 (24000/1001) FPS
Color space : YUV
Chroma subsampling : 4:2:0
Bit depth : 8 bits
Scan type : Progressive
Bits/(Pixel*Frame) : 0.265
Stream size : 7.39 GiB (96%)
Default : Yes
Forced : No
Color range : Limited
Color primaries : BT.709
Transfer characteristics : BT.709
Matrix coefficients : BT.709

Audio
ID : 2
Format : E-AC-3
Format/Info : Enhanced Audio Coding 3
Codec ID : A_EAC3
Duration : 1 h 20 min
Bit rate mode : Constant
Bit rate : 224 kb/s
Channel(s) : 2 channels
Channel positions : Front: L R
Sampling rate : 48.0 kHz
Frame rate : 187.500 FPS (256 SPF)
Compression mode : Lossy
Stream size : 128 MiB (2%)
Language : English
Service kind : Complete Main
Default : Yes
Forced : No

Text #1
ID : 3
Format : UTF-8
Codec ID : S_TEXT/UTF8
Codec ID/Info : UTF-8 Plain Text
Language : English
Default : No
Forced : No

Text #2
ID : 4
Format : UTF-8
Codec ID : S_TEXT/UTF8
Codec ID/Info : UTF-8 Plain Text
Title : SDH
Language : English
Default : No
Forced : No



1 个附件 售价 大小 下载 时间

Slink.2013.1080p.AMZN.WEBRip.DDP2.0.x264-ABM[btbtt.me].torrent 0 金币 77.15K 329 次 11天前

#1楼
发帖时间:2018-09-14 20:00:54   |   回复数:3
911degrees
隐世仙人♂
非常感谢,谢谢分享
11天前 #2楼
liyouchai
超凡入圣№
谢谢楼主分享资源
11天前 #3楼
blue23
隐世仙人♂
感谢楼主分享
10天前 #4楼
游客组