aoloffline
版主

[更 早] [欧美] [犯罪] [WEB-1080P] [BT下载]捕鹰 The.Pursuit.of.D.B.Cooper.1981.1080p.AMZN.WEBRip.DD2.0.x264-QOQ 9.8GB

-->

The.Pursuit.of.D.B.Cooper.1981.1080p.AMZN.WEBRip.DD2.0.x264-QOQ

◎译  名 捕鹰

◎片  名 The Pursuit of D.B. Cooper

◎年  代 1981

◎产  地 美国

◎类  别 冒险/犯罪/惊悚

◎语  言 英语

◎上映日期 1981-11-13

◎BT之家整理 http://www.btbtt.us/

◎片  长 100 分钟/Argentina: 105 分钟

◎导  演 罗杰 斯波蒂斯伍德 (Roger Spottiswoode)

◎主  演 Robert Duvall

      Treat Williams


◎简  介


  本片根据美国史上最著名也是最神秘,至今仍未破获的飞机劫案改编而成。劫案主角就是大名鼎鼎的D.B COOPER,在打劫后只身从一万公尺高空跳伞脱逃,此后美国警方与FBI巡查多年也并未抓获真凶。


Video
ID : 1
Format : AVC
Format/Info : Advanced Video Codec
Format profile : High@L4
Format settings : CABAC / 4 Ref Frames
Format settings, CABAC : Yes
Format settings, ReFrames : 4 frames
Codec ID : V_MPEG4/ISO/AVC
Duration : 1 h 40 min
Bit rate mode : Variable
Bit rate : 13.7 Mb/s
Maximum bit rate : 15.0 Mb/s
Width : 1 920 pixels
Height : 1 080 pixels
Display aspect ratio : 16:9
Frame rate mode : Constant
Frame rate : 23.976 (24000/1001) FPS
Color space : YUV
Chroma subsampling : 4:2:0
Bit depth : 8 bits
Scan type : Progressive
Bits/(Pixel*Frame) : 0.275
Stream size : 9.64 GiB (98%)
Writing library : x264 core 148 r2623 d5b2374
Encoding settings : cabac=1 / ref=4 / deblock=1:-1:-1 / analyse=0x3:0x133 / me=umh / subme=9 / psy=1 / psy_rd=1.00:0.15 / mixed_ref=1 / me_range=24 / chroma_me=1 / trellis=2 / 8x8dct=1 / cqm=0 / deadzone=21,11 / fast_pskip=1 / chroma_qp_offset=-3 / threads=34 / lookahead_threads=5 / sliced_threads=0 / nr=150 / decimate=1 / interlaced=0 / bluray_compat=0 / constrained_intra=0 / bframes=8 / b_pyramid=2 / b_adapt=2 / b_bias=0 / direct=3 / weightb=1 / open_gop=0 / weightp=2 / keyint=120 / keyint_min=61 / scenecut=0 / intra_refresh=0 / rc_lookahead=120 / rc=crf / mbtree=1 / crf=18.0 / qcomp=0.60 / qpmin=0 / qpmax=69 / qpstep=4 / vbv_maxrate=15000 / vbv_bufsize=31250 / crf_max=0.0 / nal_hrd=vbr / filler=0 / ip_ratio=1.40 / aq=3:1.00
Default : Yes
Forced : No
Color range : Limited
Color primaries : BT.709
Transfer characteristics : BT.709
Matrix coefficients : BT.709

Audio
ID : 2
Format : E-AC-3
Format/Info : Enhanced Audio Coding 3
Codec ID : A_EAC3
Duration : 1 h 40 min
Bit rate mode : Constant
Bit rate : 224 kb/s
Channel(s) : 2 channels
Channel positions : Front: L R
Sampling rate : 48.0 kHz
Frame rate : 187.500 FPS (256 SPF)
Compression mode : Lossy
Stream size : 162 MiB (2%)
Language : English
Service kind : Complete Main
Default : Yes
Forced : No

Text
ID : 3
Format : UTF-8
Codec ID : S_TEXT/UTF8
Codec ID/Info : UTF-8 Plain Text
Duration : 1 h 39 min
Bit rate : 61 b/s
Count of elements : 1448
Stream size : 44.4 KiB (0%)
Language : English
Default : No
Forced : No




1 个附件 售价 大小 下载 时间

The.Pursuit.of.D.B.Cooper.1981.1080p.AMZN.WEBRip.DD2.0.x264-QOQ[btbtt.me].torrent 0 金币 98.54K 350 次 11天前

#1楼
发帖时间:2018-09-14 20:05:07   |   回复数:3
911degrees
隐世仙人♂
非常感谢,谢谢分享
11天前 #2楼
liyouchai
超凡入圣№
谢谢楼主分享资源
11天前 #3楼
blue23
隐世仙人♂
感谢楼主分享
10天前 #4楼
游客组